Loading...
Error

Скачать Кактус Джек / The Villain (Хэл Нидэм) [1979, комедия, вестерн, DVDRip] [MVO] торрент без регистрации

 
Статистика раздачи
Размер:  742 MB   |    Скачан:  147 раз
Сидов:  1  [  0 KB/s  ]  
 
Автор Сообщение

Marsianka

[] 

Информация о фильме
Название: Кактус Джек
Оригинальное название: The Villain
Год выхода: 1979
Жанр: комедия, вестерн
Режиссер: Хэл Нидэм / Hal Needham
В ролях: Кирк Дуглас, Энн-Маргрет, Арнольд Шварценеггер, Пол Линде, Фостер Брукс, Рут Бацци, Джек Илэм, Стразер Мартин, Рэй Бикел, Роберт Тессьер

О фильме:
Пародия на многочисленные штампы жанра вестерна. Обворожительная девушка из маленького городка Чаминг Джонс отправляется в соседний город забрать из банка крупную сумму денег. Сопровождать ее должен благородный ковбой Красавчик Стренджер, а записной негодяй Джек Кактус собирается эти деньги украсть по поручению нечистого на руку директора банка. Банкир понятия не имеет, что грабитель Кактус патологический неудачник, которому не удалось еще ни одно «дело»


Страна: США
Продолжительность: 01:25:19
Перевод: Профессиональный (многоголосый) [ТВ-5 Санкт-Петербург]

Файл
Кодек: XviD / MP3
Качество: DVDRip
Видео: XviD, 672x368 (1.83:1), 25 fps, ~1078 kbps avg, 0.17 bit/pixel
Звук: MP3, 48 kHz, 2 ch, ~128.00 kbps
General
Complete name : C:Кактус Джек.avi
Format : AVI
Format/Info : Audio Video Interleave
File size : 742 MiB
Duration : 1h 25mn
Overall bit rate : 1 216 Kbps
Writing application : VirtualDubMod 1.5.10.2 (build 2540/release)
Writing library : VirtualDubMod build 2540/release

Video
ID : 0
Format : MPEG-4 Visual
Format profile : Advanced Simple@L5
Format settings, BVOP : 3
Format settings, QPel : No
Format settings, GMC : No warppoints
Format settings, Matrix : Default (H.263)
Codec ID : XVID
Codec ID/Hint : XviD
Duration : 1h 25mn
Bit rate : 1 078 Kbps
Width : 672 pixels
Height : 368 pixels
Display aspect ratio : 16:9
Frame rate : 25.000 fps
Color space : YUV
Chroma subsampling : 4:2:0
Bit depth : 8 bits
Scan type : Progressive
Compression mode : Lossy
Bits/(Pixel*Frame) : 0.174
Stream size : 658 MiB (89%)
Writing library : XviD 1.2.0.dev47 (UTC 2006-11-01)

Audio
ID : 1
Format : MPEG Audio
Format version : Version 1
Format profile : Layer 3
Mode : Joint stereo
Codec ID : 55
Codec ID/Hint : MP3
Duration : 1h 25mn
Bit rate mode : Constant
Bit rate : 128 Kbps
Channel(s) : 2 channels
Sampling rate : 48.0 KHz
Compression mode : Lossy
Stream size : 78.1 MiB (11%)
Alignment : Split accross interleaves
Interleave, duration : 40 ms (1.00 video frame)
Interleave, preload duration : 500 ms



Скачать Кактус.Джек.The.Villain.(Хэл.Нидэм).[1979.комедия.вестерн.DVDRip].[MVO].torrent без регистрации
Золото ЗОЛОТАЯ РАЗДАЧА! СКАЧАННОЕ НЕ ЗАСЧИТЫВАЕТСЯ! Золото
Дата: Зарегистрирован   [ Тип: внутренний ] Как тут cкачать?
MAGNET ссылка
MAGNET ссылка


Скачать .torrent

29 KB

Статус: проверено DHT
Скачан: торрент - 147 раз, раздача полностью - 74 раз
Размер: 742 MB
Оценка:  - (Голосов: 0)
Поблагодарили: 1
Поделиться ссылкой на эту раздачу с друзьями:
В контактеFacebookОдноклассникиTwitterLivejournalМой МирLiveinternet
 

 
Показать сообщения:    


Вы не можете начинать темы
Вы не можете отвечать на сообщения
Вы не можете редактировать свои сообщения
Вы не можете удалять свои сообщения
Вы не можете голосовать в опросах
Вы не можете прикреплять файлы к сообщениям
Вы можете скачивать файлы