Loading...
Error

Скачать Логово змея / Serpent's Lair (Джеффри Рейнер) [1995, триллер, DVDRip] [AVO] торрент без регистрации

 
Статистика раздачи
Размер:  1,46 GB   |    Скачан:  176 раз
Сидов:  1  [  0 KB/s  ]  
 
Автор Сообщение

Marsianka

[] 

Информация о фильме
Название: Логово змея
Оригинальное название: Serpent's Lair
Год выхода: 1995
Жанр: триллер
Режиссер: Джеффри Рейнер / Jeffrey Reiner
В ролях: Джефф Фэйи, Лиза Барбуша, Энтони Палермо, Кэтлин Нун, Джек Келер, Тейлор Николс, Патрик Бошо, Стюарт Блатт

О фильме:
Все неприятности бизнесмена Тома Беннета и его жены начались с переезда в новую квартиру, где покончил жизнь самоубийством ученый-археолог.

Подозрительные соседи, странная черная кошка и эротические сны с черноволосой незнакомкой делают жизнь Тома неспокойной. Но когда появляется сестра умершего археолога черноволосая Лилит, чтобы забрать вещи брата, начинается настоящий кошмар.


Страна: США
Студия: Castel Films, Kushner-Locke Company
Продолжительность: 01:28:42
Перевод: Авторский (одноголосый закадровый) А. Гаврилов

Файл
Кодек: XviD / AC3
Качество: DVDRip
Видео: XviD, 720x544 (1.32:1), 25 fps, 2157 kbps, 0.22 bit/pixel
Звук: AC3, 48 kHz, 2/0 (L,R) ch, 192.00 kbps avg
General
Complete name : O:Serpent's Lair.avi
Format : AVI
Format/Info : Audio Video Interleave
File size : 1.46 GiB
Duration : 1h 28mn
Overall bit rate : 2 359 Kbps
Writing application : VirtualDubMod 1.5.10.2 (build 2540/release)
Writing library : VirtualDubMod build 2540/release

Video
ID : 0
Format : MPEG-4 Visual
Format profile : Advanced Simple@L5
Format settings, BVOP : Yes
Format settings, QPel : No
Format settings, GMC : No warppoints
Format settings, Matrix : Default (MPEG)
Codec ID : XVID
Codec ID/Hint : XviD
Duration : 1h 28mn
Bit rate : 2 158 Kbps
Width : 720 pixels
Height : 544 pixels
Display aspect ratio : 4:3
Frame rate : 25.000 fps
Resolution : 8 bits
Colorimetry : 4:2:0
Scan type : Progressive
Bits/(Pixel*Frame) : 0.220
Stream size : 1.34 GiB (91%)
Writing library : XviD 1.2.1 (UTC 2008-12-04)

Audio
ID : 1
Format : AC-3
Format/Info : Audio Coding 3
Codec ID : 2000
Duration : 1h 28mn
Bit rate mode : Constant
Bit rate : 192 Kbps
Channel(s) : 2 channels
Channel positions : L R
Sampling rate : 48.0 KHz
Stream size : 122 MiB (8%)
Alignment : Aligned on interleaves
Interleave, duration : 40 ms (1.00 video frame)
Interleave, preload duration : 512 ms



Скачать Логово.змея.Serpent's.Lair.(Джеффри.Рейнер).[1995.триллер.DVDRip].[AVO].torrent без регистрации
Золото ЗОЛОТАЯ РАЗДАЧА! СКАЧАННОЕ НЕ ЗАСЧИТЫВАЕТСЯ! Золото
Дата: Зарегистрирован   [ Тип: внутренний ] Как тут cкачать?
MAGNET ссылка
MAGNET ссылка


Скачать .torrent

15 KB

Статус: проверено DHT
Скачан: торрент - 176 раз, раздача полностью - 16 раз
Размер: 1,46 GB
Оценка:  5 (Голосов: 1)
Поблагодарили: 3
Поделиться ссылкой на эту раздачу с друзьями:
В контактеFacebookОдноклассникиTwitterLivejournalМой МирLiveinternet
 

 
Показать сообщения:    


Вы не можете начинать темы
Вы не можете отвечать на сообщения
Вы не можете редактировать свои сообщения
Вы не можете удалять свои сообщения
Вы не можете голосовать в опросах
Вы не можете прикреплять файлы к сообщениям
Вы можете скачивать файлы