Loading...
Error

Скачать Пришло время любить / Lude Godine (Зоран Чалич) [1978, Комедия, мелодрама, VHSRip] [Dub]+[Sub] торрент без регистрации

 
Статистика раздачи
Размер:  746 MB   |    Скачан:  368 раз
Сидов:  1  [  0 KB/s  ]  
 
Автор Сообщение

Marsianka

[] 

Информация о фильме
Название: Пришло время любить
Оригинальное название: Lude Godine
Год выпуска: 1978
Страна: Югославия / "Звезда-фильм"
Жанр: Комедия, мелодрама
Продолжительность: 01:17:16
Перевод: Профессиональный (дублированный) Советский дубляж
Cубтитры: Русские (на места без перевода) [hardsub (неотключаемые)]

Режиссер: Зоран Чалич / Zoran Calic

В ролях: Риалда Кадрич, Владимир Петрович, Драгомир Гидра Боянич, Марко Тодорович, Дара Каленич, Елена Жигон, Велимир Бата Живойнович, Любиша Самарджич и другие.

О фильме: Десятиклассники Мария и Бобо полюбили друг друга с первого взгляда. Но недолго длилось их счастье. Мария поняла, что у нее будет ребенок и, боясь родительского гнева, решилась на крайние меры. Врачам с трудом удалось спасти ей жизнь. Тяжело переживая случившееся, юные влюбленные остались верны своему чувству. Любовь оказалась сильнее всех препятствий.



Семпл

Файл
Кодек: XviD
Качество: VHSRip
Видео: AVI, 704x480 (1.47:1), 25 fps, XviD build 50 ~1211 kbps avg, 0.14 bit/pixel
Звук: 48 kHz, MPEG Layer 3, 2 ch, ~128.00 kbps avg
Общее
Полное имя : D:РипПришло время любить.avi
Формат : AVI
Формат/Информация : Audio Video Interleave
Размер файла : 746 Мбайт
Продолжительность : 1 ч. 17 м.
Общий поток : 1350 Кбит/сек
Программа кодирования : VirtualDubMod 1.5.10.3 | www.virtualdub-fr.org || (build 2550/release)
Библиотека кодирования : VirtualDubMod build 2550/release

Видео
Идентификатор : 0
Формат : MPEG-4 Visual
Профиль формата : Advanced Simple@L5
Параметр BVOP формата : 1
Параметр QPel формата : Нет
Параметр GMC формата : Без точки перехода
Параметр матрицы формата : Default (MPEG)
Идентификатор кодека : XVID
Идентификатор кодека/Подсказка : XviD
Продолжительность : 1 ч. 17 м.
Битрейт : 1212 Кбит/сек
Ширина : 704 пикселя
Высота : 480 пикселей
Соотношение сторон : 3:2
Частота кадров : 25,000 кадров/сек
Стандарт вещания : NTSC
Цветовое пространство : YUV
Субдискретизация насыщенности : 4:2:0
Битовая глубина : 8 бит
Тип развёртки : Прогрессивная
Метод сжатия : С потерями
Бит/(Пиксели*Кадры) : 0.143
Размер потока : 670 Мбайт (90%)
Библиотека кодирования : XviD 1.2.1 (UTC 2008-12-04)

Аудио
Идентификатор : 1
Формат : MPEG Audio
Версия формата : Version 1
Профиль формата : Layer 3
Идентификатор кодека : 55
Идентификатор кодека/Подсказка : MP3
Продолжительность : 1 ч. 17 м.
Вид битрейта : Постоянный
Битрейт : 128 Кбит/сек
Каналы : 2 канала
Частота : 48,0 КГц
Метод сжатия : С потерями
Размер потока : 70,7 Мбайт (9%)
Выравнивание : Соединение по промежуткам
Продолжительность промежутка : 40 мс. (1,00 видеокадр)
Время предзагрузки промежутка : 504 мс.
Библиотека кодирования : LAME3.98r
Настройки программы : -m s -V 4 -q 2 -lowpass 17 -b 128


Релиз от:



Скачать Пришло.время.любить.Lude.Godine.(Зоран.Чалич).[1978.Комедия.мелодрама.VHSRip].[Dub]+[Sub].torrent без регистрации
Золото ЗОЛОТАЯ РАЗДАЧА! СКАЧАННОЕ НЕ ЗАСЧИТЫВАЕТСЯ! Золото
Дата: Зарегистрирован   [ Тип: внутренний ] Как тут cкачать?
MAGNET ссылка
MAGNET ссылка


Скачать .torrent

15 KB

Статус: проверено DHT
Скачан: торрент - 368 раз, раздача полностью - 247 раз
Размер: 746 MB
Оценка:  - (Голосов: 0)
Поблагодарили: 2
Поделиться ссылкой на эту раздачу с друзьями:
В контактеFacebookОдноклассникиTwitterLivejournalМой МирLiveinternet
 

 
Показать сообщения:    


Вы не можете начинать темы
Вы не можете отвечать на сообщения
Вы не можете редактировать свои сообщения
Вы не можете удалять свои сообщения
Вы не можете голосовать в опросах
Вы не можете прикреплять файлы к сообщениям
Вы можете скачивать файлы