Loading...
Error

Скачать Тёмное зеркало / Dark Mirror (Пабло Проэнза) [2007, мистика, триллер, ужасы, HDTVRip] [MVO] торрент без регистрации

 
Статистика раздачи
Размер:  1,36 GB   |    Скачан:  153 раза
Сидов:  1  [  0 KB/s  ]  
 
Автор Сообщение

МихаНЕзатор

[] 

Информация о фильме
Название: Тёмное зеркало
Оригинальное название: Dark Mirror
Год выхода: 2007
Жанр: мистика, триллер, ужасы
Режиссер: Пабло Проэнза / Pablo Proenza
В ролях: Лайза Видал, Дэвид Чисам, Джошуа Пелегрин, Луп Онтиверос, Кристин Лэкин, Джон Ньютон, Такер Смаллвуд, Джареб Доплес

О фильме:
Дебора с семьей переезжает в старый странный дом. В доме она обнаруживает альтернативную реальность, отражающуюся в зеркалах Тёмную реальность, которая вплотную приблизилась к ней.



Страна: США
Студия: Cut Glass Productions LLC
Продолжительность: 01:22:21
Перевод: Профессиональный (многоголосый закадровый)

Файл
Кодек: XviD
Качество: HDTVRip
Видео: 720x384 (1.88:1), 25 fps, XviD build 50 ~2168 kbps avg, 0.31 bit/pixel
Звук: 48 kHz, MPEG Layer 3, 2 ch, ~192.00 kbps avg
Общее
Полное имя : D:VideoTemnoe.zerkalo.HDTVRip.avi
Формат : AVI
Формат/Информация : Audio Video Interleave
Размер файла : 1,36 Гбайт
Продолжительность : 1 ч. 22 м.
Общий поток : 2370 Кбит/сек
Программа кодирования : VirtualDubMod 1.5.10.3 (build 2550/release)
Библиотека кодирования : VirtualDubMod build 2550/release

Видео
Идентификатор : 0
Формат : MPEG-4 Visual
Профиль формата : Advanced Simple@L5
Параметр BVOP формата : 1
Параметр QPel формата : Нет
Параметр GMC формата : Без точки перехода
Параметр матрицы формата : Выборочная
Идентификатор кодека : DX50
Идентификатор кодека/Подсказка : DivX 5
Продолжительность : 1 ч. 22 м.
Битрейт : 2168 Кбит/сек
Ширина : 720 пикселей
Высота : 384 пикселя
Соотношение сторон : 1,85:1
Частота кадров : 25,000 кадров/сек
Цветовое пространство : YUV
Субдискретизация насыщенности : 4:2:0
Битовая глубина : 8 бит
Тип развёртки : Прогрессивная
Метод сжатия : С потерями
Бит/(Пиксели*Кадры) : 0.314
Размер потока : 1,25 Гбайт (91%)
Библиотека кодирования : XviD 1.2.1 (UTC 2008-12-04)

Аудио
Идентификатор : 1
Формат : MPEG Audio
Версия формата : Version 1
Профиль формата : Layer 2
Идентификатор кодека : 50
Продолжительность : 1 ч. 22 м.
Вид битрейта : Постоянный
Битрейт : 192 Кбит/сек
Каналы : 2 канала
Частота : 48,0 КГц
Метод сжатия : С потерями
Размер потока : 113 Мбайт (8%)
Выравнивание : Разделение по промежуткам
Продолжительность промежутка : 40 мс. (1,00 видеокадр)
Время предзагрузки промежутка : 500 мс.










Релиз от:



Скачать Тёмное.зеркало.Dark.Mirror.(Пабло.Проэнза).[2007.мистика.триллер.ужасы.HDTVRip].[MVO].torrent без регистрации
Золото ЗОЛОТАЯ РАЗДАЧА! СКАЧАННОЕ НЕ ЗАСЧИТЫВАЕТСЯ! Золото
Дата: Зарегистрирован   [ Тип: внутренний ] Как тут cкачать?
MAGNET ссылка
MAGNET ссылка


Скачать .torrent

14 KB

Статус: проверено DHT
Скачан: торрент - 153 раз, раздача полностью - 44 раз
Размер: 1,36 GB
Оценка:  - (Голосов: 0)
Поблагодарили: 1
Поделиться ссылкой на эту раздачу с друзьями:
В контактеFacebookОдноклассникиTwitterLivejournalМой МирLiveinternet
 

 
Показать сообщения:    


Вы не можете начинать темы
Вы не можете отвечать на сообщения
Вы не можете редактировать свои сообщения
Вы не можете удалять свои сообщения
Вы не можете голосовать в опросах
Вы не можете прикреплять файлы к сообщениям
Вы можете скачивать файлы