Loading...
Error

Скачать Ванильно-клубничное мороженое / Vanille fraise (Жерар Ури) [1989, комедия, SATRip] [Dub] торрент без регистрации

 
Статистика раздачи
Размер:  1,37 GB   |    Скачан:  168 раз

Полного источника не было: 19 минут

 
Автор Сообщение

Marsianka

[] 

Информация о фильме
Название: Ванильно-клубничное мороженое
Оригинальное название: Vanille fraise
Год выхода: 1989
Жанр: комедия
Режиссер: Жерар Ури / G™rard Oury
В ролях: Пьер Ардити /Pierre Arditi/, Сабин Азема /Sabine Az™ma/, Исааш Де Банколе /Isaach De Bankol™/, Риккардо Кучиолла /Riccardo Cucciolla /, Венантино Венантини /Venantino Venantini/, Жак Перрен /Jacques Perrin/

О фильме:
Кларисса Буланже, в прошлом суперсекретный агент, переживает семейный кризис. Муж Антуан постоянно обманывает ее, но при этом безумно ревнует. Уставшая от переживаний Кларисса решает тряхнуть стариной и соглашается по просьбе своего бывшего шефа выполнить секретное задание.

Вместе с чернокожим агентом спецслужб Ипполитом она должна взорвать итальянское судно, переправляющее оружие для арабских террористов. Кларисса приезжает на Капри, чтобы встретиться с напарником. Ее условный пароль «Клубника», его «Ваниль&raquo. В целях конспирации агенты должны изображать семейную пару. Но, внезапно появившийся ревнивец муж чуть было не портит все дело.


Страна: Франция, Италия
Продолжительность: 01:34:19
Перевод: Профессиональный (полное дублирование)

Файл
Кодек: XviD / MP3
Качество: SATRip
Видео: XviD, 640x368 (1.74:1), 25,020 fps, ~1937 kbps avg, 0.329 bit/pixel
Звук: MP3, 48 kHz, 2 ch, 128 kbps
Общее
Полное имя : e:Vaniljno klubnichnoe.avi
Формат : AVI
Формат/Информация : Audio Video Interleave
Размер файла : 1,37 Гбайт
Продолжительность : 1 ч. 34 м.
Общий поток : 2073 Кбит/сек
Программа кодирования : VirtualDubModRus 1.5.10.2 (build 2542/release)
Библиотека кодирования : VirtualDubMod build 2542/release

Видео
Идентификатор : 0
Формат : MPEG-4 Visual
Профиль формата : Advanced Simple@L5
Параметр BVOP формата : 1
Параметр QPel формата : Нет
Параметр GMC формата : Без точки перехода
Параметр матрицы формата : Default (MPEG)
Режим смешивания : Сжатый битовый поток
Идентификатор кодека : XVID
Идентификатор кодека/Подсказка : XviD
Продолжительность : 1 ч. 34 м.
Битрейт : 1937 Кбит/сек
Ширина : 640 пикселей
Высота : 368 пикселей
Соотношение сторон : 16:9
Частота кадров : 25,020 кадров/сек
Частота кадров в оригинале : 25,000 кадров/сек
Цветовое пространство : YUV
Субдискретизация насыщенности : 4:2:0
Битовая глубина : 8 бит
Тип развёртки : Прогрессивная
Метод сжатия : С потерями
Бит/(Пиксели*Кадры) : 0.329
Размер потока : 1,28 Гбайт (93%)
Библиотека кодирования : XviD 1.2.0.dev47 (UTC 2006-11-01)

Аудио
Идентификатор : 1
Формат : MPEG Audio
Версия формата : Version 1
Профиль формата : Layer 3
Режим : Joint stereo
Расширение режима : MS Stereo
Идентификатор кодека : 55
Идентификатор кодека/Подсказка : MP3
Продолжительность : 1 ч. 33 м.
Вид битрейта : Постоянный
Битрейт : 128 Кбит/сек
Каналы : 2 канала
Частота : 32,0 КГц
Метод сжатия : С потерями
Размер потока : 85,4 Мбайт (6%)
Выравнивание : Соединение по промежуткам
Продолжительность промежутка : 40 мс. (1,01 видеокадр)
Время предзагрузки промежутка : 504 мс.



Скачать Ванильно-клубничное.мороженое.Vanille.fraise.(Жерар.Ури).[1989.комедия.SATRip].[Dub].torrent без регистрации
Золото ЗОЛОТАЯ РАЗДАЧА! СКАЧАННОЕ НЕ ЗАСЧИТЫВАЕТСЯ! Золото
Дата: Зарегистрирован   [ Тип: внутренний ] Как тут cкачать?
MAGNET ссылка
MAGNET ссылка


Скачать .torrent

14 KB

Статус: проверено DHT
Скачан: торрент - 168 раз, раздача полностью - 123 раз
Размер: 1,37 GB
Оценка:  - (Голосов: 0)
Поблагодарили: 2
Поделиться ссылкой на эту раздачу с друзьями:
В контактеFacebookОдноклассникиTwitterLivejournalМой МирLiveinternet
 

 
Показать сообщения:    


Вы не можете начинать темы
Вы не можете отвечать на сообщения
Вы не можете редактировать свои сообщения
Вы не можете удалять свои сообщения
Вы не можете голосовать в опросах
Вы не можете прикреплять файлы к сообщениям
Вы можете скачивать файлы