Loading...
Error

Скачать После работы / After Hours (Мартин Скорсезе / Martin Scorsese) [1985, Комедия, триллер, фильм-нуар, трагикомедия, сатира, DVDRip] [Dub] ("Варус-Видео") + [MVO] (Ukr) торрент без регистрации

 
Статистика раздачи
Размер:  1,37 GB   |    Скачан:  138 раз
Сидов:  1  [  0 KB/s  ]  
 
Автор Сообщение

leon030982

[] 

После работы / After Hours


Год выпуска: 1985
Страна: США
Жанр: Комедия, триллер, фильм-нуар, трагикомедия, сатира
Продолжительность: 01:37:07
Перевод: Профессиональный (дублированный) "Варус-Видео"
Перевод 2: Украинский профессиональный (многоголосый закадровый)
Cубтитры: нет

Режиссер: Мартин Скорсезе / Martin Scorsese

В ролях: Гриффин Данн, Розанна Аркетт, Линда Фиорентино, Тери Гарр, Верна Блум, Томми Чонг, Джон Херд, Чич Марин, Кэтрин О'Хара, Дик Миллер, Бронсон Пинчот, Рокко Систо, Ларри Блок, Виктор Арго, Маррей Мостон, Клэренс Фелдер, Генри Джудд Бэйкер, Роберт Планкет, Марго Уинклер, Виктор Маньотта, Робин Джонсон, Стефен Лим, Фрэнк Акуилино, Паула Рафло, Рокетс Редглейр

Описание: Сколько неприятностей, случайностей, совпадений и нелепостей может произойти с человеком всего за одну ночь! Для программиста, героя фильма (Данн), этот вопрос обретает черты кошмарной реальности, когда на ночном Манхэттене он попадает в сети к трем странным женщинам. Очень смешная, жестокая, эксцентрическая и густо черная комедия. Сценарий был написан как задание для класса Джозефом Минионом, студентом кинофакультета Колумбийского Университета. Приз за режиссуру Мартину Скорсезе в Канне в 1986 году, который запрещал Данну спать и заниматься сексом во время съемок для достижения необходимого уровня напряжения. (М. Иванов)... Блистательная режиссура балансирует между стилем интеллектуальной комедии о «яппи в опасности» и мистическим фарсом об оборотной сущности Нью-Йорка, являясь своеобразным «гранд гиньолем» по-американски. Безусловно, такая манера показалась усложнённой для американских зрителей. Критик Леонард Молтин точно пояснил: «Этот комический кошмар настолько доставит вам удовольствие, насколько близко вам удастся идентифицировать себя с героем Данна — единственной нормальной личностью в фильме!».

Сэмпл: http://multi-up.com/743019/
Качество видео: DVDRip
Формат видео: AVI
Видео: DivX Codec 5.x or 6.x, 720x416 (1.73:1), 23.976 fps, 1626 kbps avg
Аудио 1: Rus AC3 Dolby Digital, 48 kHz, 2/0 (L,R) ch, 192.00 kbps avg DUB
Аудио 2: Ukr AC3 Dolby Digital, 48 kHz, 2/0 (L,R) ch, 192.00 kbps avg MVO
General
Complete name : D:\НА РУТРЕКЕР\Posle.raboty.1985.DivX.DVDRip.Lem.avi
Format : AVI
Format/Info : Audio Video Interleave
File size : 1.37 GiB
Duration : 1h 37mn
Overall bit rate : 2 024 Kbps
Movie name : After Hours (1985)
Director : Martin Scorsese
Writing application : VirtualDubModRus 1.5.10.2 (build 2542/release)
Writing library : VirtualDubMod build 2542/release
Copyright : Warner Bros. Pictures
Video
ID : 0
Format : MPEG-4 Visual
Format settings, BVOP : Yes
Format settings, QPel : No
Format settings, GMC : No warppoints
Format settings, Matrix : Default (H.263)
Muxing mode : Packed bitstream
Codec ID : DX50
Codec ID/Hint : DivX 5
Duration : 1h 37mn
Bit rate : 1 626 Kbps
Width : 720 pixels
Height : 416 pixels
Display aspect ratio : 16/9
Frame rate : 23.976 fps
Resolution : 24 bits
Colorimetry : 4:2:0
Scan type : Progressive
Bits/(Pixel*Frame) : 0.226
Stream size : 1.10 GiB (80%)
Writing library : DivX 6.8.5
Audio #1
ID : 1
Format : AC-3
Format/Info : Audio Coding 3
Codec ID : 2000
Duration : 1h 37mn
Bit rate mode : Constant
Bit rate : 192 Kbps
Channel(s) : 2 channels
Channel positions : L R
Sampling rate : 48.0 KHz
Stream size : 133 MiB (9%)
Alignment : Split accross interleaves
Interleave, duration : 42 ms (1.00 video frame)
Interleave, preload duration : 500 ms
Audio #2
ID : 2
Format : AC-3
Format/Info : Audio Coding 3
Codec ID : 2000
Duration : 1h 37mn
Bit rate mode : Constant
Bit rate : 192 Kbps
Channel(s) : 2 channels
Channel positions : L R
Sampling rate : 48.0 KHz
Stream size : 133 MiB (9%)
Alignment : Split accross interleaves
Interleave, duration : 42 ms (1.00 video frame)
Interleave, preload duration : 500 ms
Дубляж студии "Варус - Видео" / Роли дублировали: Владимир Вихров, Ольга Сирина, Дмитрий Полонский, Ольга Кузнецова, Любовь Германова, Никита Прозоровский, Сергей Балабанов



Скачать После.работы.After.Hours.(Мартин.Скорсезе.Martin.Scorsese).[1985.Комедия.триллер.фильм-нуар.трагикомедия.сатира.DVDRip].[Dub].("Варус-Видео").+.[MVO].(Ukr).torrent без регистрации
Золото ЗОЛОТАЯ РАЗДАЧА! СКАЧАННОЕ НЕ ЗАСЧИТЫВАЕТСЯ! Золото
Дата: Зарегистрирован   [ Тип: внутренний ] Как тут cкачать?
MAGNET ссылка
MAGNET ссылка


Скачать .torrent

14 KB

Статус: проверено DHT
Скачан: торрент - 138 раз, раздача полностью - 354 раз
Размер: 1,37 GB
Оценка:  - (Голосов: 0)
Поблагодарили: 2
Поделиться ссылкой на эту раздачу с друзьями:
В контактеFacebookОдноклассникиTwitterLivejournalМой МирLiveinternet
 

 
Показать сообщения:    


Вы не можете начинать темы
Вы не можете отвечать на сообщения
Вы не можете редактировать свои сообщения
Вы не можете удалять свои сообщения
Вы не можете голосовать в опросах
Вы не можете прикреплять файлы к сообщениям
Вы можете скачивать файлы