Loading...
Error

Скачать Отель «Миллион долларов» / The Million Dollar Hotel (Вим Вендерс) [1999, триллер, драма, детектив, DVDRip] [MVO] торрент без регистрации

 
Статистика раздачи
Размер:  744 MB   |    Скачан:  153 раза
Сидов:  1  [  0 KB/s  ]  
 
Автор Сообщение

Marsianka

[] 

Информация о фильме
Название: Отель «Миллион долларов»
Оригинальное название: The Million Dollar Hotel
Год выхода: 1999
Жанр: триллер, драма, детектив
Режиссер: Вим Вендерс / Wim Wenders
В ролях: Джереми Дэвис, Милла Йовович, Джимми Смитс, Петер Стормаре, Аманда Пламмер, Глория Стюарт, Том Бауэр, Донал Лог, Бад Корт, Джулиан Сэндс, Конрад Робертс, Харрис Юлин, Чарлэйн Вудард, Эллен Клегхорн, Ричард Эдсон, Тито Ларрива, Мэл Гибсон

О фильме:
Побывавший на своем веку в немыслимых переделках, специальный агент ФБР, детектив Скиннер расследует самое загадочное дело в своей карьере: смерть сына известного медиа-магната.

Так он оказывается в лос-анджелесскои отеле «Миллион долларов», населенном наркоманами и ворами. Было ли это самоубийство или убийство? Ответ становится еще более сложным, когда один из постояльцев пытается увести подозрения от красавицы Элоизы. Теперь Скиннер должен отделить факты от вымыслов, чтобы найти виновного, кто бы он ни был

Официальный сайт

Страна: США, Германия, Великобритания
Студия: Icon Entertainment International, Kintop Pictures, Road Movies Filmproduktion
Продолжительность: 01:56:56
Перевод: Профессиональный (многоголосый, закадровый)

Файл
Кодек: XviD / MP3
Качество: DVDRip
Видео: XviD, 688x288 (2.39:1), 25 fps, ~751 kbps avg, 0.15 bit/pixel
Звук: MP3, 48 kHz, 2 ch, ~128.00 kbps avg
General
Complete name : /media/Отель ''Миллион долларов''.avi
Format : AVI
Format/Info : Audio Video Interleave
File size : 744 MiB
Duration : 1h 56mn
Overall bit rate : 889 Kbps
Director : Last Boy Scout
Writing application : VirtualDubMod 1.5.10.2 (build 2540/release)

Video
ID : 0
Format : MPEG-4 Visual
Format profile : Advanced Simple@L5
Format settings, BVOP : 1
Format settings, QPel : No
Format settings, GMC : No warppoints
Format settings, Matrix : Custom
Codec ID : XVID
Codec ID/Hint : XviD
Duration : 1h 56mn
Bit rate : 752 Kbps
Width : 688 pixels
Height : 288 pixels
Display aspect ratio : 2.40:1
Frame rate : 25.000 fps
Color space : YUV
Chroma subsampling : 4:2:0
Bit depth : 8 bits
Scan type : Progressive
Compression mode : Lossy
Bits/(Pixel*Frame) : 0.152
Stream size : 629 MiB (85%)
Writing library : XviD 1.2.1 (UTC 2008-12-04)

Audio
ID : 1
Format : MPEG Audio
Format version : Version 1
Format profile : Layer 3
Codec ID : 55
Codec ID/Hint : MP3
Duration : 1h 56mn
Bit rate mode : Constant
Bit rate : 128 Kbps
Channel(s) : 2 channels
Sampling rate : 48.0 KHz
Compression mode : Lossy
Stream size : 107 MiB (14%)
Alignment : Aligned on interleaves
Interleave, duration : 40 ms (1.00 video frame)
Interleave, preload duration : 504 ms
Writing library : LAME3.98r
Encoding settings : -m s -V 4 -q 2 -lowpass 17 -b 128



Скачать Отель.«Миллион.долларов».The.Million.Dollar.Hotel.(Вим.Вендерс).[1999.триллер.драма.детектив.DVDRip].[MVO].torrent без регистрации
Золото ЗОЛОТАЯ РАЗДАЧА! СКАЧАННОЕ НЕ ЗАСЧИТЫВАЕТСЯ! Золото
Дата: Зарегистрирован   [ Тип: внутренний ] Как тут cкачать?
MAGNET ссылка
MAGNET ссылка


Скачать .torrent

15 KB

Статус: проверено DHT
Скачан: торрент - 153 раз, раздача полностью - 26 раз
Размер: 744 MB
Оценка:  5 (Голосов: 1)
Поблагодарили: 2
Поделиться ссылкой на эту раздачу с друзьями:
В контактеFacebookОдноклассникиTwitterLivejournalМой МирLiveinternet
 

 
Показать сообщения:    


Вы не можете начинать темы
Вы не можете отвечать на сообщения
Вы не можете редактировать свои сообщения
Вы не можете удалять свои сообщения
Вы не можете голосовать в опросах
Вы не можете прикреплять файлы к сообщениям
Вы можете скачивать файлы