Loading...
Error

Скачать Парк советского периода (Юлий Гусман) [2006, комедийная притча, приключение, DVDRip] торрент без регистрации

 
Статистика раздачи
Размер:  746 MB   |    Скачан:  115 раз
Сидов:  1  [  0 KB/s  ]  
 
Автор Сообщение

МихаНЕзатор

[] 

Информация о фильме
Название: Парк советского периода
Год выхода: 2006
Жанр: драма, комедия
Режиссер: Юлий Гусман
В ролях: Александр Абдулов, Владимир Этуш, Сергей Никоненко, Алексей Булдаков, Лидия Федосеева-Шукшина, Нина Усатова, Александр Лазарев мл., Владимир Долинский, Александр Пашутин, Елизавета Боярская

О фильме:
Не без помощи западных инвесторов российские бизнесмены реконструировали «островок советской жизни» и назвали свое детище «Парком мечты». И море здесь есть, и почти настоящий Кремль рядом, и реки, и горы, и пустыня все в одном парке. И окружать гостей будут самые известные люди тех лет актеры, певцы, шахматисты

Популярный тележурналист Олег Зимин, который должен был дать рекламу этого парка в своей программе, становится одним из первых его посетителей. Уставший от московских неприятностей, которые обрушились на него со всех сторон, он решает заодно и отдохнуть. Сначала все вызывает у Олега искренний восторг и все напоминает о юности.

Олег влюбляется в Алену Волкову, одну из лучших работниц парка. Но вскоре ему дают понять, что контакты между сотрудниками парка и отдыхающими запрещены и что у Алены есть поклонник массовик-затейник Роберт, и что товарищ Роберт один из главных людей в администрации парка



Страна: Россия
Продолжительность: 02:05:41
Перевод: Не требуется

Файл
Кодек: XviD / MP3
Качество: DVDRip
Видео: XviD, 640x352 (16:9), 25.000 fps, 710 Kbps (0.126 bit/pixel)
Звук: MP3, 44.1 KHz, 2 ch, 112 Kbps, CBR (Russian)
General
Complete name : /media/Park.Sovetskogo.perioda_DVDRip.745_[Rutor.org].avi
Format : AVI
Format/Info : Audio Video Interleave
File size : 746 MiB
Duration : 2h 5mn
Overall bit rate : 830 Kbps
Writing application : VirtualDubMod 1.5.4.1 (build 2178/release)
Writing library : VirtualDubMod build 2178/release

Video
ID : 0
Format : MPEG-4 Visual
Format profile : Advanced Simple@L5
Format settings, BVOP : 1
Format settings, QPel : No
Format settings, GMC : No warppoints
Format settings, Matrix : Custom
Codec ID : XVID
Codec ID/Hint : XviD
Duration : 2h 5mn
Bit rate : 710 Kbps
Width : 640 pixels
Height : 352 pixels
Display aspect ratio : 16:9
Frame rate : 25.000 fps
Color space : YUV
Chroma subsampling : 4:2:0
Bit depth : 8 bits
Scan type : Progressive
Compression mode : Lossy
Bits/(Pixel*Frame) : 0.126
Stream size : 639 MiB (86%)
Writing library : XviD 65

Audio
ID : 1
Format : MPEG Audio
Format version : Version 1
Format profile : Layer 3
Mode : Joint stereo
Mode extension : MS Stereo
Codec ID : 55
Codec ID/Hint : MP3
Duration : 2h 5mn
Bit rate mode : Constant
Bit rate : 112 Kbps
Channel(s) : 2 channels
Sampling rate : 44.1 KHz
Compression mode : Lossy
Stream size : 101 MiB (13%)
Alignment : Split accross interleaves
Interleave, duration : 80 ms (2.00 video frames)
Interleave, preload duration : 500 ms
Writing library : LAME3.99r
Encoding settings : -m j -V 4 -q 2 -lowpass 15.6 -b 112
Language : Russian



Скачать Парк.советского.периода.(Юлий.Гусман).[2006.комедийная.притча.приключение.DVDRip].torrent без регистрации
Золото ЗОЛОТАЯ РАЗДАЧА! СКАЧАННОЕ НЕ ЗАСЧИТЫВАЕТСЯ! Золото
Дата: Зарегистрирован   [ Тип: внутренний ] Как тут cкачать?
MAGNET ссылка
MAGNET ссылка


Скачать .torrent

30 KB

Статус: проверено DHT
Скачан: торрент - 115 раз, раздача полностью - 16 раз
Размер: 746 MB
Оценка:  5 (Голосов: 1)
Поблагодарили: 1
Поделиться ссылкой на эту раздачу с друзьями:
В контактеFacebookОдноклассникиTwitterLivejournalМой МирLiveinternet
 

 
Показать сообщения:    


Вы не можете начинать темы
Вы не можете отвечать на сообщения
Вы не можете редактировать свои сообщения
Вы не можете удалять свои сообщения
Вы не можете голосовать в опросах
Вы не можете прикреплять файлы к сообщениям
Вы можете скачивать файлы