Loading...
Error

Скачать Континуум / Continuum (сезоны 01-04) (фантастика, триллер) [2012-2015, фантастика, боевик, триллерб BDRip] [MVO (LostFilm)] торрент без регистрации

Статистика раздачи
Размер:  30,93 GB   |    Скачан:  196 раз
Сидов:  6  [  0 KB/s  ]   Личеров:  5  [  0 KB/s  ]  
 
 
 
Автор Сообщение

МихаНЕзатор

[] 

Континуум / Continuum


Страна: Канада
Производство: Reunion Pictures, Shaw Media
Год выпуска: 2012-2015
Жанр: фантастика, боевик, триллер
Режиссеры: Пэт Уильямс, Дэвид Фрэйзи, Уильям Варинг
Авторы сценария: Саймон Бэрри, Джереми Смит, Джонатан Уолкер

В ролях: Рэйчел Николс, Эрик Кнудсен, Виктор Уэбстер, Стивен Лобо, Роджер Р. Кросс, Лувия Петерсен, Омари Ньютон, Лекса Дойг

Описание: Группа террористов-фанатиков, избежавшая казни в 2077 году, перемещается в наше время вместе с преследующим их полицейским Кирой Камерон...

Дата премьеры (мир): 27 мая 2012



Релиз от: tеko

Сезоны: 1-4
Продолжительность: 42х ~00:44:00
Перевод: Профессиональный (многоголосый, закадровый) | LostFilm
Субтитры: нет

Качество: BDRip | исходник Континуум / Continuum 1080p BD-Remux HDCLUB
Формат: AVI
Видео кодек: XviD
Аудио кодек: АС3
Видео: 704x400 (16:9), 23.976 fps, XviD build 73 ~2 000 kbps avg
Аудио: 48.0 kHz, AC3 Dolby Digital, 3/2 (L,C,R,l,r) + LFE ch, ~384 kbps

АНОНСЫ ПОПУЛЯРНЫХ РАЗДАЧ


Торрент обновлён, улучшен видеоряд, добавлен 2-3-й сезоны!
General
Complete name : s01e01_A.Stitch.In.Time.avi
Format : AVI
Format/Info : Audio Video Interleave
File size : 753 MiB
Duration : 43mn 59s
Overall bit rate : 2 393 Kbps
Writing application : VirtualDubMod 1.5.10.3 | (build 2550/release)
Writing library : VirtualDubMod build 2550/release

Video
ID : 0
Format : MPEG-4 Visual
Format profile : Advanced Simple@L5
Format settings, BVOP : 2
Format settings, QPel : No
Format settings, GMC : No warppoints
Format settings, Matrix : Custom
Codec ID : XVID
Codec ID/Hint : XviD
Duration : 43mn 59s
Bit rate : 2 000 Kbps
Width : 704 pixels
Height : 400 pixels
Display aspect ratio : 16:9
Frame rate : 23.976 (23976/1000) fps
Color space : YUV
Chroma subsampling : 4:2:0
Bit depth : 8 bits
Scan type : Progressive
Compression mode : Lossy
Bits/(Pixel*Frame) : 0.296
Stream size : 629 MiB (84%)
Writing library : XviD 73

Audio
ID : 1
Format : AC-3
Format/Info : Audio Coding 3
Mode extension : CM (complete main)
Format settings, Endianness : Big
Codec ID : 2000
Duration : 43mn 59s
Bit rate mode : Constant
Bit rate : 384 Kbps
Channel(s) : 6 channels
Channel positions : Front: L C R, Side: L R, LFE
Sampling rate : 48.0 KHz
Frame rate : 31.250 fps (1536 spf)
Compression mode : Lossy
Stream size : 121 MiB (16%)
Alignment : Split accross interleaves
Interleave, duration : 42 ms (1.00 video frame)
Interleave, preload duratio : 500 ms




Скачать Континуум.Continuum.(сезоны.01-04).(фантастика.триллер).[2012-2015.фантастика.боевик.триллерб.BDRip].[MVO.(LostFilm)].torrent без регистрации
Золото ЗОЛОТАЯ РАЗДАЧА! СКАЧАННОЕ НЕ ЗАСЧИТЫВАЕТСЯ! Золото
Дата: Зарегистрирован   [ Тип: внешний ] Как тут cкачать?
MAGNET ссылка
MAGNET ссылка


Скачать .torrent

158 KB

Статус: проверено DHT
Скачан: торрент - 196 раз, раздача полностью - 45 раз
Размер: 30,93 GB
Оценка:  5 (Голосов: 1)
Поблагодарили: 9
Поделиться ссылкой на эту раздачу с друзьями:
В контактеFacebookОдноклассникиTwitterLivejournalМой МирLiveinternet
 

 
Показать сообщения:    


Вы не можете начинать темы
Вы не можете отвечать на сообщения
Вы не можете редактировать свои сообщения
Вы не можете удалять свои сообщения
Вы не можете голосовать в опросах
Вы не можете прикреплять файлы к сообщениям
Вы можете скачивать файлы