Loading...
Error

Скачать Управление гневом / Anger Management (01х01-10 из 10) (Энди Кэдифф, Джерри Коэн, Роб Шиллер) [2012, комедия, HDTVRip] [MVO (LostFilm)] торрент без регистрации

 
Статистика раздачи
Размер:  3,07 GB   |    Скачан:  319 раз
Сидов:  1  [  0 KB/s  ]  
 
Автор Сообщение

МихаНЕзатор

[] 

Информация о фильме
Название: Управление гневом
Оригинальное название: Anger Management
Год выхода: 2012
Жанр: комедия
Режиссер: Энди Кэдифф, Джерри Коэн, Роб Шиллер
В ролях: Чарли Шин, Майкл Арден, Сэльма Блэр, Даниела Бобадилла, Бэрри Корбин, Норин ДеВулф, Стивен Тейлор, Бретт Батлер, Альдо Гонзалез, Дерек Ричардсон

О фильме:
До своей карьеры терапевта, Чарли был в тупике из-за отсутствия перспектив в низшей бейсбольной лиге. Проблема неумения контролировать свой гнев сбила его с пути в высшую лигу. После прохождения курса терапии по борьбе с гневом, он вывел свою команду в высшую лигу и провел один потрясающий сезон, прежде чем старые проблемы вновь не напомнили о себе. В своем финальном матче он пытался ударить себя битой по ноге, в результате чего получил травму, которая положила конец его карьере.

Но в итоге эта же травма привела его к нынешней профессии. В то время как Чарли борется со своим гневом, в его жизни процветает хаос. Всё осложняется его отношениями с собственным терапевтом и лучшим другом, бывшей женой, чьи позитивные взгляды на будущее, но при этом плохой выбор мужчин, расстраивают Чарли и их 13-летнюю дочь, имеющую психические расстройства.

Страна: США
Студия: Mohawk Productions, Revolution Studios, Eztevez/Sheen Productions, Twisted Television, Debmar-Mercury, Lionsgate Television
Продолжительность: ~ 22 минуты серия
Перевод: Профессиональный (многоголосый, закадровый) - LostFilm

Файл
Кодек: XviD / MP3
Качество: HDTVRip
Видео: XviD, 720x400 (16:9), 23.976 fps, 1 915 Kbps (0.277 bit/pixel)
Звук: MP3, 48.0 KHz, 2 ch, 128 Kbps, CBR



26.08.2012 г. торент обновлён, добавлена 8-10 серия!
General
Complete name : /Anger.Management.S01.rus.LostFilm/Anger.Management.S01E01.rus.LostFilm.TV.avi
Format : AVI
Format/Info : Audio Video Interleave
File size : 318 MiB
Duration : 21mn 38s
Overall bit rate : 2 056 Kbps
Writing application : Nandub v1.0rc2
Writing library : Nandub build 1853/release

Video
ID : 0
Format : MPEG-4 Visual
Format profile : Simple@L3
Format settings, BVOP : No
Format settings, QPel : No
Format settings, GMC : No warppoints
Format settings, Matrix : Default (H.263)
Codec ID : XVID
Codec ID/Hint : XviD
Duration : 21mn 38s
Bit rate : 1 915 Kbps
Width : 720 pixels
Height : 400 pixels
Display aspect ratio : 16:9
Frame rate : 23.976 fps
Color space : YUV
Chroma subsampling : 4:2:0
Bit depth : 8 bits
Scan type : Progressive
Compression mode : Lossy
Bits/(Pixel*Frame) : 0.277
Stream size : 296 MiB (93%)
Writing library : XviD 1.2.1 (UTC 2008-12-04)

Audio
ID : 1
Format : MPEG Audio
Format version : Version 1
Format profile : Layer 3
Mode : Joint stereo
Mode extension : MS Stereo
Codec ID : 55
Codec ID/Hint : MP3
Duration : 21mn 38s
Bit rate mode : Constant
Bit rate : 128 Kbps
Channel(s) : 2 channels
Sampling rate : 48.0 KHz
Compression mode : Lossy
Stream size : 19.8 MiB (6%)
Alignment : Aligned on interleaves
Interleave, duration : 24 ms (0.58 video frame)
Interleave, preload duration : 480 ms



Скачать Управление.гневом.Anger.Management.(01х01-10.из.10).(Энди.Кэдифф.Джерри.Коэн.Роб.Шиллер).[2012.комедия.HDTVRip].[MVO.(LostFilm)].torrent без регистрации
Золото ЗОЛОТАЯ РАЗДАЧА! СКАЧАННОЕ НЕ ЗАСЧИТЫВАЕТСЯ! Золото
Дата: Зарегистрирован   [ Тип: внутренний ] Как тут cкачать?
MAGNET ссылка
MAGNET ссылка


Скачать .torrent

17 KB

Статус: проверено DHT
Скачан: торрент - 319 раз, раздача полностью - 248 раз
Размер: 3,07 GB
Оценка:  5 (Голосов: 2)
Поблагодарили: 6
Поделиться ссылкой на эту раздачу с друзьями:
В контактеFacebookОдноклассникиTwitterLivejournalМой МирLiveinternet
 

 
Показать сообщения:    


Вы не можете начинать темы
Вы не можете отвечать на сообщения
Вы не можете редактировать свои сообщения
Вы не можете удалять свои сообщения
Вы не можете голосовать в опросах
Вы не можете прикреплять файлы к сообщениям
Вы можете скачивать файлы