Loading...
Error

Скачать Пинки / Pinky und der Millionenmops (Стефан Лукши / Stefan Lukschy) [2001, Комедия, криминал, семейный, DVDRip] [MVO] (Екатеринбург Арт) торрент без регистрации

 
Статистика раздачи
Размер:  1,37 GB   |    Скачан:  113 раз
Сидов:  1  [  0 KB/s  ]  
 
Автор Сообщение

leon030982

[] 

Пинки / Pinky und der Millionenmops


Год выпуска: 2001
Страна: Германия
Жанр: Комедия, криминал, семейный
Продолжительность: 01:30:21
Перевод: Профессиональный (многоголосый закадровый) Екатеринбург Арт
Cубтитры: нет

Режиссер: Стефан Лукши / Stefan Lukschy

В ролях: Джейм Крсто, Ханс Клэрин, Кармен-Майя Энтони, Генрих Шафмейстер, Мария Петц, Винфрид Глатцедер, Лазло Хорвитц, Тило Прюкнер

Описание: В семье Поммеров живут пятеро приемных детей — Пинки, Монстр, Принцесса, Вумм и Пенг. Все пятеро — по-своему замечательные дети. Особенно 11-летний Пинки, который бредит подвигами великого сыщика Пинкертона. И очень скоро Пинки предоставляется случай проявить все свои детективные таланты. Миллионер Джонатан Морган, разменявший уже седьмой десяток лет, поручает ему разыскать своего бесследно исчезнувшего любимца — мопса Арнольда. Казалось бы, у старого богача и маленького сироты нет и не может быть ничего общего. Но Пинки вместе со своими «братьями и сестрами» — настоящий «вулкан свежих идей»…

Релиз
Сэмпл: http://multi-up.com/738882
Качество видео: DVDRip
Формат видео: AVI
Видео: XviD build 50, 704x400 (1.76:1), 25 fps, 1707 kbps avg
Аудио: AC3 Dolby Digital, 3/2 (L,C,R,l,r) + LFE ch, 448.00 kbps avg
General
Complete name : D:\Pinki.2001.XviD.DVDRip-Zanaves.avi
Format : AVI
Format/Info : Audio Video Interleave
File size : 1.37 GiB
Duration : 1h 30mn
Overall bit rate : 2 165 Kbps
Writing application : VirtualDubMod 1.5.10.2 (build 2540/release)
Writing library : VirtualDubMod build 2540/release
Video
ID : 0
Format : MPEG-4 Visual
Format profile : AdvancedSimple@L5
Format settings, BVOP : Yes
Format settings, QPel : No
Format settings, GMC : No warppoints
Format settings, Matrix : Default (MPEG)
Codec ID : XVID
Codec ID/Hint : XviD
Duration : 1h 30mn
Bit rate : 1 708 Kbps
Width : 704 pixels
Height : 400 pixels
Display aspect ratio : 16/9
Frame rate : 25.000 fps
Resolution : 24 bits
Colorimetry : 4:2:0
Scan type : Progressive
Bits/(Pixel*Frame) : 0.243
Stream size : 1.08 GiB (79%)
Writing library : XviD 1.2.1 (UTC 2008-12-04)
Audio
ID : 1
Format : AC-3
Format/Info : Audio Coding 3
Codec ID : 2000
Duration : 1h 30mn
Bit rate mode : Constant
Bit rate : 448 Kbps
Channel(s) : 6 channels
Channel positions : Front: L C R, Surround: L R, LFE
Sampling rate : 48.0 KHz
Stream size : 290 MiB (21%)
Alignment : Split accross interleaves
Interleave, duration : 40 ms (1.00 video frame)
Interleave, preload duration : 500 ms



Скачать Пинки.Pinky.und.der.Millionenmops.(Стефан.Лукши.Stefan.Lukschy).[2001.Комедия.криминал.семейный.DVDRip].[MVO].(Екатеринбург.Арт).torrent без регистрации
Золото ЗОЛОТАЯ РАЗДАЧА! СКАЧАННОЕ НЕ ЗАСЧИТЫВАЕТСЯ! Золото
Дата: Зарегистрирован   [ Тип: внутренний ] Как тут cкачать?
MAGNET ссылка
MAGNET ссылка


Скачать .torrent

14 KB

Статус: проверено DHT
Скачан: торрент - 113 раз, раздача полностью - 4 раз
Размер: 1,37 GB
Оценка:  - (Голосов: 0)
Поблагодарили: 0
Поделиться ссылкой на эту раздачу с друзьями:
В контактеFacebookОдноклассникиTwitterLivejournalМой МирLiveinternet
 

 
Показать сообщения:    


Вы не можете начинать темы
Вы не можете отвечать на сообщения
Вы не можете редактировать свои сообщения
Вы не можете удалять свои сообщения
Вы не можете голосовать в опросах
Вы не можете прикреплять файлы к сообщениям
Вы можете скачивать файлы