Loading...
Error

Скачать Падший / Fallen (Грегори Хоблит / Gregory Hoblit) [1998, мистика, драма, триллер, криминал, BDRip-AVC] [Dub] + [DVO] + 2x[AVO] (Гаврилов, Живов) торрент без регистрации

 
Статистика раздачи
Размер:  4,64 GB   |    Скачан:  137 раз
Сидов:  1  [  0 KB/s  ]  
 
Автор Сообщение

leon030982

[] 

Падший / Fallen
«Чему быть, того не миновать»

Год выпуска: 1998
Страна: США
Жанр: мистика, драма, триллер, криминал
Продолжительность: 02:04:11
Перевод 1: Профессиональный (дублированный)
Перевод 2: Профессиональный (двухголосый, закадровый)
Перевод 3: Авторский (одноголосый закадровый) Гаврилов
Перевод 4: Авторский (одноголосый закадровый) Живов
Cубтитры: русские, английские
Оригинальная аудиодорожка: английский
Режиссер: Грегори Хоблит / Gregory Hoblit

Сценарий: Николас Казан
Продюсер: Роберт Кавалло, Элон Дершовиц, Патриция Граф
Оператор: Ньютон Томас Сигел
Композитор: Тань Дунь
Художник: Теренс Марш, Уильям Крус, Коллин Этвуд
Монтаж: Лоуренс Джордан

В ролях: Дэнзел Вашингтон, Джон Гудман, Доналд Сазерленд, Гэбриэл Кассеус, Элиас Котеас, Аида Туртурро, Джеймс Гандольфини, Эмбет Дэвидц, Роберт Джой
Описание: В городской тюрьме казнен по приговору суда опасный преступник, маньяк - убийца. С этого момента в городе происходят одно за другим загадочные убийства, притом, судя по телам жертв, убийства ритуального характера. Полицейский детектив Хоббс, присутствовавший при казни маньяка, берется за расследование серии этих преступлений и, для начала, выясняет, как зовут того, кто их совершил. Установив его имя, сыщик приходит к страшному выводу: эти злодеяния - не человеческих рук дело, а демона - убийцы, вырвавшегося в наш мир...


Сэмпл
Качество видео: BDRip-AVC Fallen 1998 1080p Blu-ray AVC DTS-HD MA 5.1-HDChina ~30 MBit/s
Формат видео: MKV
Видео: AVC 1152x480@23.976fps ~3500 kBit/s
Аудио 1: AC3 384 kBit/s 48 kHz 5.1 DD Профессиональный (дублированный)

Аудио 2: AC3 448 kBit/s 48 kHz 5.1 DD Профессиональный (двухголосый, закадровый)
Аудио 3: AC3 192 kBit/s 48 kHz 2.0 DD Авторский (одноголосый закадровый) Гаврилов
Аудио 4: AC3 448 kBit/s 48 kHz 5.1 DD Авторский (одноголосый закадровый) Живов Отдельно
Аудио 5: AC3 448 kBit/s 48 kHz 5.1 DD Оригинальная аудиодорожка: английский
x264vfw [info]: using SAR=1/1
x264vfw [info]: using cpu capabilities: MMX2 SSE2Fast SSSE3 FastShuffle SSE4.1 Cache64
x264vfw [info]: profile High, level 4.1
x264vfw [info]: frame I:376 Avg QP:15.08 size: 79056
x264vfw [info]: frame P:9203 Avg QP:17.77 size: 35442
x264vfw [info]: frame B:33672 Avg QP:19.64 size: 12870
x264vfw [info]: consecutive B-frames: 2.1% 3.1% 6.8% 20.8% 17.1% 32.9% 7.2% 4.2% 2.8% 1.6% 1.4%
x264vfw [info]: mb I I16..4: 4.1% 81.3% 14.6%
x264vfw [info]: mb P I16..4: 1.4% 16.4% 1.6% P16..4: 39.4% 24.0% 14.2% 1.1% 0.2% skip: 1.7%
x264vfw [info]: mb B I16..4: 0.1% 1.4% 0.1% B16..8: 40.9% 13.2% 4.0% direct: 7.5% skip:32.8% L0:44.3% L1:42.4% BI:13.3%
x264vfw [info]: 8x8 transform intra:84.7% inter:61.5%
x264vfw [info]: direct mvs spatial:99.4% temporal:0.6%
x264vfw [info]: coded y,uvDC,uvAC intra: 90.9% 89.4% 79.8% inter: 31.0% 33.6% 19.9%
x264vfw [info]: i16 v,h,dc,p: 41% 14% 12% 33%
x264vfw [info]: i8 v,h,dc,ddl,ddr,vr,hd,vl,hu: 13% 10% 9% 8% 13% 12% 12% 11% 12%
x264vfw [info]: i4 v,h,dc,ddl,ddr,vr,hd,vl,hu: 11% 11% 4% 9% 15% 14% 13% 11% 12%
x264vfw [info]: i8c dc,h,v,p: 50% 18% 16% 16%
x264vfw [info]: Weighted P-Frames: Y:13.8% UV:7.5%
x264vfw [info]: ref P L0: 43.5% 10.1% 18.6% 6.9% 5.5% 3.6% 3.2% 1.7% 1.5% 1.2% 1.1% 0.9% 0.8% 0.7% 0.7% 0.1%
x264vfw [info]: ref B L0: 68.6% 13.5% 6.1% 3.2% 2.2% 1.8% 1.3% 0.8% 0.6% 0.6% 0.5% 0.4% 0.2% 0.1%
x264vfw [info]: ref B L1: 91.7% 8.3%
x264vfw [info]: kb/s:3500.16
General
Unique ID : 172673339711496758268464274056187306472 (0x81E7ACF12854ED718590B18CC7E961E8)
Complete name : D:\fallen.mkv
Format : Matroska
Format version : Version 2
File size : 4.31 GiB
Duration : 2h 4mn
Overall bit rate : 4 959 Kbps
Encoded date : UTC 2012-08-09 18:04:06
Writing application : mkvmerge v5.6.0 ('Kenya Kane') built on May 27 2012 16:44:04
Writing library : libebml v1.2.3 + libmatroska v1.3.0
Video
ID : 1
Format : AVC
Format/Info : Advanced Video Codec
Format profile : High@L4.1
Format settings, CABAC : Yes
Format settings, ReFrames : 15 frames
Codec ID : V_MPEG4/ISO/AVC
Duration : 2h 4mn
Bit rate : 3 500 Kbps
Width : 1 152 pixels
Height : 480 pixels
Display aspect ratio : 2.40:1
Frame rate : 23.976 fps
Color space : YUV
Chroma subsampling : 4:2:0
Bit depth : 8 bits
Scan type : Progressive
Bits/(Pixel*Frame) : 0.264
Stream size : 2.94 GiB (68%)
Title : AVC (x264) 1152x480@23.976 fps ~ 3500 kBit/s 2-pass High 4.1
Writing library : x264 core 122 r2184bm 5c85e0a
Encoding settings : cabac=1 / ref=15 / deblock=1:-2:-2 / analyse=0x3:0x133 / me=umh / subme=10 / psy=1 / psy_rd=1.00:0.05 / mixed_ref=1 / me_range=32 / chroma_me=1 / trellis=2 / 8x8dct=1 / cqm=0 / deadzone=21,11 / fast_pskip=0 / chroma_qp_offset=-3 / threads=6 / sliced_threads=0 / nr=0 / decimate=0 / interlaced=0 / bluray_compat=0 / constrained_intra=0 / bframes=10 / b_pyramid=2 / b_adapt=2 / b_bias=0 / direct=3 / weightb=1 / open_gop=0 / weightp=2 / keyint=250 / keyint_min=23 / scenecut=40 / intra_refresh=0 / rc=2pass / mbtree=0 / bitrate=3500 / ratetol=1.0 / qcomp=0.90 / qpmin=0 / qpmax=69 / qpstep=4 / cplxblur=20.0 / qblur=0.5 / ip_ratio=1.40 / pb_ratio=1.25 / aq=2:0.80
Language : English
Default : Yes
Forced : No
Audio #1
ID : 2
Format : AC-3
Format/Info : Audio Coding 3
Mode extension : CM (complete main)
Format settings, Endianness : Big
Codec ID : A_AC3
Duration : 2h 4mn
Bit rate mode : Constant
Bit rate : 384 Kbps
Channel(s) : 6 channels
Channel positions : Front: L C R, Side: L R, LFE
Sampling rate : 48.0 KHz
Bit depth : 16 bits
Compression mode : Lossy
Stream size : 342 MiB (8%)
Title : Дубляж AC3 384 kBit/s 48 kHz 5.1 DD
Language : Russian
Default : Yes
Forced : No
Audio #2
ID : 3
Format : AC-3
Format/Info : Audio Coding 3
Mode extension : CM (complete main)
Format settings, Endianness : Big
Codec ID : A_AC3
Duration : 2h 4mn
Bit rate mode : Constant
Bit rate : 448 Kbps
Channel(s) : 6 channels
Channel positions : Front: L C R, Side: L R, LFE
Sampling rate : 48.0 KHz
Bit depth : 16 bits
Compression mode : Lossy
Stream size : 399 MiB (9%)
Title : DVO AC3 448 kBit/s 48 kHz 5.1 DD
Language : Russian
Default : No
Forced : No
Audio #3
ID : 4
Format : AC-3
Format/Info : Audio Coding 3
Mode extension : CM (complete main)
Format settings, Endianness : Big
Codec ID : A_AC3
Duration : 2h 4mn
Bit rate mode : Constant
Bit rate : 192 Kbps
Channel(s) : 2 channels
Channel positions : Front: L R
Sampling rate : 48.0 KHz
Bit depth : 16 bits
Compression mode : Lossy
Stream size : 171 MiB (4%)
Title : Гаврилов AC3 192 kBit/s 48 kHz 2.0 DD
Language : Russian
Default : No
Forced : No
Audio #4
ID : 5
Format : AC-3
Format/Info : Audio Coding 3
Mode extension : CM (complete main)
Format settings, Endianness : Big
Codec ID : A_AC3
Duration : 2h 4mn
Bit rate mode : Constant
Bit rate : 448 Kbps
Channel(s) : 6 channels
Channel positions : Front: L C R, Side: L R, LFE
Sampling rate : 48.0 KHz
Bit depth : 16 bits
Compression mode : Lossy
Stream size : 399 MiB (9%)
Title : English AC3 448 kBit/s 48 kHz 5.1 DD
Language : English
Default : No
Forced : No
Text #1
ID : 6
Format : UTF-8
Codec ID : S_TEXT/UTF8
Codec ID/Info : UTF-8 Plain Text
Language : Russian
Default : No
Forced : No
Text #2
ID : 7
Format : UTF-8
Codec ID : S_TEXT/UTF8
Codec ID/Info : UTF-8 Plain Text
Title : SDH
Language : English
Default : No
Forced : No
Text #3
ID : 8
Format : UTF-8
Codec ID : S_TEXT/UTF8
Codec ID/Info : UTF-8 Plain Text
Language : English
Default : No
Forced : No
Menu
00:00:00.000 : en:His Eighth Notch
00:02:24.853 : en:What Goes Around
00:05:08.266 : en:The Show
00:09:23.563 : en:Chosen People
00:14:36.125 : en:Two Breakfasts
00:16:55.014 : en:A Startling Clue
00:19:53.067 : en:Cop of the Year
00:23:04.883 : en:Mumbo-Jumbo?
00:26:22.206 : en:Hard to Sustain
00:31:11.995 : en:Full Circle
00:36:02.077 : en:Scary Coincidence
00:40:32.847 : en:Some Ringmaster
00:43:42.620 : en:A Name Uncovered
00:49:28.799 : en:Sense Other World
00:55:18.732 : en:Close to Hobbes
01:02:09.768 : en:The Right Person
01:06:42.040 : en:Nearly in Touch
01:10:30.184 : en:Framed
01:12:46.237 : en:Hobbes' Home Turf
01:17:04.370 : en:Still Havin' Fun
01:19:39.483 : en:You Are the Killer
01:21:45.067 : en:When Moment Comes
01:27:18.567 : en:Sad Discovery
01:33:15.548 : en:Fugitives
01:37:33.056 : en:Deserving Heaven
01:39:37.430 : en:Ready
01:44:43.360 : en:Things Get Tricky
01:47:05.377 : en:One More Surprise
01:52:25.489 : en:Maximum Fun
01:55:01.269 : en:Up in Smoke
01:58:58.381 : en:The War Isn't Over
02:00:35.770 : en:End Credits
В картине демон Азазел постоянно напевает две песенки из репертуара группы «The Rolling Stones» – «Время на моей стороне» (Time is on my side) и «Сочувствие к дьяволу» (Sympathy for the Devil).
Фильм снимался в Филадельфии (штат Пенсильвания) и городке Пайн Барренс (штат Нью-Джерси).
В одной из сцен по телевизору показывают культовую картину Тодда Браунинга «Уродцы» (1934).



Скачать Падший.Fallen.(Грегори.Хоблит.Gregory.Hoblit).[1998.мистика.драма.триллер.криминал.BDRip-AVC].[Dub].+.[DVO].+.2x[AVO].(Гаврилов.Живов).torrent без регистрации
Золото ЗОЛОТАЯ РАЗДАЧА! СКАЧАННОЕ НЕ ЗАСЧИТЫВАЕТСЯ! Золото
Дата: Зарегистрирован   [ Тип: внутренний ] Как тут cкачать?
MAGNET ссылка
MAGNET ссылка


Скачать .torrent

12 KB

Статус: проверено DHT
Скачан: торрент - 137 раз, раздача полностью - 5 раз
Размер: 4,64 GB
Оценка:  - (Голосов: 0)
Поблагодарили: 2
Поделиться ссылкой на эту раздачу с друзьями:
В контактеFacebookОдноклассникиTwitterLivejournalМой МирLiveinternet
 

 
Показать сообщения:    


Вы не можете начинать темы
Вы не можете отвечать на сообщения
Вы не можете редактировать свои сообщения
Вы не можете удалять свои сообщения
Вы не можете голосовать в опросах
Вы не можете прикреплять файлы к сообщениям
Вы можете скачивать файлы