Loading...
Error

Скачать Без вины виноватый / Wrongfully Accused (Пэт Профт) [1988, комедия, пародия, HDTVRip] [MVO]+[Оригинал] торрент без регистрации

 
Статистика раздачи
Размер:  1,44 GB   |    Скачан:  169 раз
Сидов:  1  [  0 KB/s  ]  
 
Автор Сообщение

Marsianka

[] 

Информация о фильме
Название: Без вины виноватый
Оригинальное название: Wrongfully Accused
Год выхода: 1998
Жанр: комедия, пародия
Режиссер: Пэт Профт
В ролях: Ричард Кренна, Лесли Нильсен, Келли ЛеБрок, Мелинда МакГроу, Майкл Йорк, Сандра Бернхард, Аарон Перл, Лесли Джонс, Бенжамин Рэтнер, Джерард Планкетт

О фильме:
На самом пике своей блестящей карьеры красавец суперскрипач Райан Харрисон оказался втянутым богатой искусительницей Лорен Гудхью в одно паршивое дельце, связанное с убийством. Несмотря на то, что покушавшийся был одноруким, одноногим и одноглазым, невезучий Харрисон был арестован, признан виновным и приговорен к смертной казни.
К счастью, тюремный автобус заносит на банановой кожуре, что позволяет Харрисону сбежать. Теперь беглец, обреченный на смерть, начинает гонку, преследуемый неутомимым агентом Фергюсом Фоллзом. Под градом пуль Харрисон спасает невиновных свидетелей, ищет настоящего убийцу, изобличает международный заговор и еще должен успеть получить из химчистки свой смокинг




Страна: США
Студия: Constantin Film Produktion GmbH, Morgan Creek Productions
Продолжительность: 01:25:52
Перевод: Профессиональный (многоголосый, закадровый), оригинал

Файл
Кодек: XviD
Качество: HDTVRip
Видео: 768x432, 23.976 fps, XviD MPEG-4, 1880 kbps avg
Звук:
Аудио 1: 48 kHz, MP3, 2 ch, 128.00 kbps (многоголосый закадровый перевод)
Аудио 2: 48 kHz, AC3 Dolby Digital, 3/2 (L,C,R,l,r) + LFE ch, 384.00 kbps (оригинал)
Общее
Полное имя :D:VideoBez.vinu.vinonvat.1998.HDTVRip.avi
Формат : AVI
Формат/Информация : Audio Video Interleave
Размер файла : 1,44 Гбайт
Продолжительность : 1 ч. 25 м.
Общий поток : 2407 Кбит/сек
Программа кодирования : VirtualDubMod 1.5.10.2 (build 2540/release)
Библиотека кодирования : VirtualDubMod build 2540/release

Видео
Идентификатор : 0
Формат : MPEG-4 Visual
Профиль формата : Simple@L3
Параметр BVOP формата : 2
Параметр QPel формата : Нет
Параметр GMC формата : Без точки перехода
Параметр матрицы формата : Default (MPEG)
Режим смешивания : Сжатый битовый поток
Идентификатор кодека : XVID
Идентификатор кодека/Подсказка : XviD
Продолжительность : 1 ч. 25 м.
Битрейт : 1881 Кбит/сек
Ширина : 768 пикселей
Высота : 432 пикселя
Соотношение сторон : 16:9
Частота кадров : 23,976 кадра/сек
Цветовое пространство : YUV
Субдискретизация насыщенности : 4:2:0
Битовая глубина : 8 бит
Тип развёртки : Прогрессивная
Метод сжатия : С потерями
Бит/(Пиксели*Кадры) : 0.237
Размер потока : 1,13 Гбайт (78%)
Библиотека кодирования : XviD 1.1.0 Beta2 (UTC 2005-04-04)

Аудио #1
Идентификатор : 1
Формат : MPEG Audio
Идентификатор кодека : 55
Идентификатор кодека/Подсказка : MP3
Продолжительность : 1 ч. 25 м.
Битрейт : 128 Кбит/сек
Каналы : 2 канала
Частота : 48,0 КГц
Метод сжатия : С потерями
Размер потока : 78,4 Мбайт (5%)
Выравнивание : Разделение по промежуткам
Продолжительность промежутка : 42 мс. (1,00 видеокадр)
Время предзагрузки промежутка : 504 мс.

Аудио #2
Идентификатор : 2
Формат : AC-3
Формат/Информация : Audio Coding 3
Расширение режима : CM (complete main)
Параметр Endianness формата : Big
Идентификатор кодека : 2000
Продолжительность : 1 ч. 25 м.
Вид битрейта : Постоянный
Битрейт : 384 Кбит/сек
Каналы : 6 каналов
Расположение каналов : Front: L C R, Side: L R, LFE
Частота : 48,0 КГц
Битовая глубина : 16 бит
Метод сжатия : С потерями
Размер потока : 236 Мбайт (16%)
Выравнивание : Разделение по промежуткам
Продолжительность промежутка : 42 мс. (1,00 видеокадр)
Время предзагрузки промежутка : 500 мс.








Релиз от:



Скачать Без.вины.виноватый.Wrongfully.Accused.(Пэт.Профт).[1988.комедия.пародия.HDTVRip].[MVO]+[Оригинал].torrent без регистрации
Золото ЗОЛОТАЯ РАЗДАЧА! СКАЧАННОЕ НЕ ЗАСЧИТЫВАЕТСЯ! Золото
Дата: Зарегистрирован   [ Тип: внутренний ] Как тут cкачать?
MAGNET ссылка
MAGNET ссылка


Скачать .torrent

15 KB

Статус: проверено DHT
Скачан: торрент - 169 раз, раздача полностью - 251 раз
Размер: 1,44 GB
Оценка:  5 (Голосов: 1)
Поблагодарили: 1
Поделиться ссылкой на эту раздачу с друзьями:
В контактеFacebookОдноклассникиTwitterLivejournalМой МирLiveinternet
 

 
Показать сообщения:    


Вы не можете начинать темы
Вы не можете отвечать на сообщения
Вы не можете редактировать свои сообщения
Вы не можете удалять свои сообщения
Вы не можете голосовать в опросах
Вы не можете прикреплять файлы к сообщениям
Вы можете скачивать файлы