Loading...
Error

Скачать В объятиях любви / In between loves (Йи Чинг Фанг / Yi Ching Fung) [1989, триллер, DVDRip] [VO] (den904) торрент без регистрации

 
Статистика раздачи
Размер:  1,46 GB   |    Скачан:  116 раз
Сидов:  1  [  0 KB/s  ]  
 
Автор Сообщение

leon030982

[] 

В объятиях любви / In between loves

Год выпуска: 1989
Страна: Гонконг
Жанр: триллер
Продолжительность: 01:28:11
Перевод: одноголосый закадровый den904
Перевод на русский: dsa69 & contello
Cубтитры: нет
Режиссер: Йи Чинг Фанг / Yi Ching Fung
В ролях: Альфред Чун, Сандра ЭнДжи Кван Юе, Лоуренс ЭнДжи, Фрут Чан, Лоуренс Чэн, Мэгги Чун, Чунг Лам, Фанг Ву
Описание: Таксист Люнг уже давно влюблен в телеведущую Дженни Тюнг, хотя та, естественно, даже не подозревает о его существовании. Однажды Люнгу удается задержать грабителя, и чтобы познакомиться с Дженни, он обращается не в полицию, а к ней — а затем, воодушевленный, становится для нее источником бесперебойных «горячих новостей». Впрочем, в конце концов «эксклюзив» заканчивается и Люнг решается на отчаянный шаг…

РЕЛИЗ ГРУПП:
Сэмпл: http://multi-up.com/744891
ВНИМАНИЕ!!! В ФИЛЬМЕ ПРИСУТСТВУЕТ НЕНОРМАТИВНАЯ ЛЕКСИКА

Качество видео: DVDRip (исходник DVD5)
Формат видео: AVI
Видео: XviD, 720x400 (1.80:1), 23.976 fps, 2136 kbps avg, 0.31 bit/pixel
Аудио: Русский, 48 KHz, MPEG layer 3, 224 kbps
- русские субтитры
в этой раздаче, одноголосое закадровое озвучивание
Format : AVI
Format/Info : Audio Video Interleave
File size : 1.46 GiB
Duration : 1h 28mn
Overall bit rate : 2 369 Kbps
Writing application : VirtualDubMod 1.5.10.2 (build 2540/release)
Writing library : VirtualDubMod build 2540/release
Video
ID : 0
Format : MPEG-4 Visual
Format profile : Advanced Simple@L5
Format settings, BVOP : 1
Format settings, QPel : No
Format settings, GMC : No warppoints
Format settings, Matrix : Custom
Codec ID : XVID
Codec ID/Hint : XviD
Duration : 1h 28mn
Bit rate : 2 136 Kbps
Width : 720 pixels
Height : 400 pixels
Display aspect ratio : 16:9
Frame rate : 23.976 fps
Color space : YUV
Chroma subsampling : 4:2:0
Bit depth : 8 bits
Scan type : Progressive
Compression mode : Lossy
Bits/(Pixel*Frame) : 0.309
Stream size : 1.32 GiB (90%)
Writing library : XviD 1.0.2 (UTC 2004-08-29)
Audio
ID : 1
Format : MPEG Audio
Format version : Version 1
Format profile : Layer 3
Mode : Joint stereo
Codec ID : 55
Codec ID/Hint : MP3
Duration : 1h 28mn
Bit rate mode : Constant
Bit rate : 224 Kbps
Channel(s) : 2 channels
Sampling rate : 48.0 KHz
Compression mode : Lossy
Stream size : 141 MiB (9%)
Alignment : Aligned on interleaves
Interleave, duration : 42 ms (1.00 video frame)
Interleave, preload duration : 504 ms



Скачать В.объятиях.любви.In.between.loves.(Йи.Чинг.Фанг.Yi.Ching.Fung).[1989.триллер.DVDRip].[VO].(den904).torrent без регистрации
Золото ЗОЛОТАЯ РАЗДАЧА! СКАЧАННОЕ НЕ ЗАСЧИТЫВАЕТСЯ! Золото
Дата: Зарегистрирован   [ Тип: внутренний ] Как тут cкачать?
MAGNET ссылка
MAGNET ссылка


Скачать .torrent

15 KB

Статус: проверено DHT
Скачан: торрент - 116 раз, раздача полностью - 1 раз
Размер: 1,46 GB
Оценка:  - (Голосов: 0)
Поблагодарили: 1
Поделиться ссылкой на эту раздачу с друзьями:
В контактеFacebookОдноклассникиTwitterLivejournalМой МирLiveinternet
 

 
Показать сообщения:    


Вы не можете начинать темы
Вы не можете отвечать на сообщения
Вы не можете редактировать свои сообщения
Вы не можете удалять свои сообщения
Вы не можете голосовать в опросах
Вы не можете прикреплять файлы к сообщениям
Вы можете скачивать файлы