Loading...
Error

Скачать Генералы песчаных карьеров / The Sandpit Generals (Холл Бартлетт / Hall Bartlett) [1971, драма, боевик, мелодрама, романс, DVDRip-AVC] [DUB] торрент без регистрации

 
Статистика раздачи
Размер:  1,62 GB   |    Скачан:  175 раз
Сидов:  1  [  0 KB/s  ]  
 
Автор Сообщение

leon030982

[] 

Генералы песчаных карьеров / The Sandpit Generals


Год выпуска: 1971
Страна: США
Жанр: драма, боевик, мелодрама, романс
Продолжительность: 01:30:00
Перевод: Профессиональный (дублированный)
Cубтитры: нет
Оригинальная аудиодорожка: английский

Режиссер: Холл Бартлетт / Hall Bartlett

В ролях: Juarez Santalvo; Freddie Gedeon (Almiro / Альмиро); Ademir Da Silva (Big John / Большой Джон); Guilherme Lamounier (The Cat / Кошка); Eliana Pittman (Dalvah / Дальвах); Dorival Caymmi (John Adam / Джон Адам); Peter Nielsen (Lollipop / Лоллипоп); Mark De Vries (Dry Turn); Butch Patrick / Бутч Патрик (No Legs); John Rubinstein / Джон Рубинштейн (Professor / Профессор); Тиша Стерлинг / Patricia Ann Sterling (Dora / Дора); Kent Lane / Кент Лейн (Bullet); Alejandro Rey / Алехандро Рей (Fr. Jose Pedro); Aloysio Oliveira (Chancellor / Канцлер); Lorrene Baker

Описание: По роману Жоржи Амаду "Капитаны песка".
В народе их называют — «генералы песчаных карьеров». Эти парни готовы сражаться за кусок хлеба, и не позавидовать тому, кто окажется у них на пути — эти мальчишки опасны и жестки. Однако и у них есть сердца, есть желание любить и быть любимыми. В СССР фильм был показан в конкурсной программе Международного московского кинофестиваля в 1971, однако наград не завоевал.В широкий прокат фильм вышел в 1974, причем по результатам года «Комсомольская правда» назвала его лучшим иностранным фильмом.Огромную популярность в СССР завоевала музыка из кинофильма, в т.ч. песня Доривала Каймми «Марш рыбаков», русская версия которой вновь стала хитом в 1998 благодаря ее новому исполнению группой «Несчастный случай».


Качество видео: DVDRip-AVC
Формат видео: MKV
Видео: English; 1900 kbps; 694*400@740*400 (1.85:1); 25.000 fps; AVC (High@L3.0) (CABAC / 4 Ref Frames)
Аудио: Russian; 224 kbps; 48.0 kHz; 16 bits; 2 ch; AC-3
Аудио 2: Russian; 224 kbps; 48.0 kHz; 16 bits; 6 ch; AC-3
Аудио 3: English; 224 kbps; 48.0 kHz; 16 bits; 6 ch; AC-3 (отдельно, не синхрон, 150 Mb)
Общее
Уникальный идентификатор : 217014120302882823984612398196489386930 (0xA343663634BB0DD7BE8D3E0CC196FBB2)
Полное имя : I:\ФИЛЬМЫ-ЛЕГЕНДЫ\Генералы песчаных карьеров (1971)\The Defiant (1971)\The Defiant (1971).mkv
Формат : Matroska
Версия формата : Version 2
Размер файла : 1,48 Гбайт
Продолжительность : 1 ч. 30 м.
Общий поток : 2350 Кбит/сек
Дата кодирования : UTC 2012-08-08 22:03:25
Программа кодирования : mkvmerge v4.3.0 ('Escape from the Island') сборка от Sep 5 2010 10:30:51
Библиотека кодирования : libebml v1.0.0 + libmatroska v1.0.0
Видео
Идентификатор : 1
Формат : AVC
Формат/Информация : Advanced Video Codec
Профиль формата : High@L3.0
Параметр CABAC формата : Да
Параметр ReFrames формата : 4 кадра
Идентификатор кодека : V_MPEG4/ISO/AVC
Продолжительность : 1 ч. 30 м.
Битрейт : 1900 Кбит/сек
Ширина : 694 пикселя
Высота : 400 пикселей
Соотношение сторон : 1,85:1
Соотношение сторон в оригинале : 1,85:1
Частота кадров : 25,000 кадров/сек
Цветовое пространство : YUV
Субдискретизация насыщенности : 4:2:0
Битовая глубина : 8 бит
Тип развёртки : Прогрессивная
Бит/(Пиксели*Кадры) : 0.274
Размер потока : 1,17 Гбайт (79%)
Заголовок : DVDRip-AVC: Muz-Vid aka Id-Ero (Коновалов Владислав): [http://medsexolog-voronezh.mylivepage.ru; medsexvrnobl@mail.ru] для
Библиотека кодирования : x264 core 125 r2200 999b753
Настройки программы : cabac=1 / ref=3 / deblock=1:0:0 / analyse=0x3:0x113 / me=hex / subme=7 / psy=1 / psy_rd=1.00:0.00 / mixed_ref=1 / me_range=16 / chroma_me=1 / trellis=1 / 8x8dct=1 / cqm=0 / deadzone=21,11 / fast_pskip=1 / chroma_qp_offset=-2 / threads=3 / lookahead_threads=1 / sliced_threads=0 / nr=0 / decimate=1 / interlaced=0 / bluray_compat=0 / constrained_intra=0 / bframes=3 / b_pyramid=2 / b_adapt=1 / b_bias=0 / direct=1 / weightb=1 / open_gop=0 / weightp=2 / keyint=250 / keyint_min=25 / scenecut=40 / intra_refresh=0 / rc_lookahead=40 / rc=2pass / mbtree=1 / bitrate=1900 / ratetol=1.0 / qcomp=0.60 / qpmin=10 / qpmax=51 / qpstep=4 / cplxblur=20.0 / qblur=0.5 / ip_ratio=1.40 / aq=1:1.00
Язык : English
Default : Да
Forced : Да
Аудио #1
Идентификатор : 2
Формат : AC-3
Формат/Информация : Audio Coding 3
Профиль формата : Dolby Digital
Расширение режима : CM (complete main)
Параметр Endianness формата : Big
Идентификатор кодека : A_AC3
Продолжительность : 1 ч. 30 м.
Вид битрейта : Постоянный
Битрейт : 224 Кбит/сек
Каналы : 2 канала
Расположение каналов : Front: L R
Частота : 48,0 КГц
Битовая глубина : 16 бит
Метод сжатия : С потерями
Размер потока : 144 Мбайт (10%)
Заголовок : 2 ch
Язык : Russian
Default : Да
Forced : Да
Аудио #2
Идентификатор : 3
Формат : AC-3
Формат/Информация : Audio Coding 3
Расширение режима : CM (complete main)
Параметр Endianness формата : Big
Идентификатор кодека : A_AC3
Продолжительность : 1 ч. 30 м.
Вид битрейта : Постоянный
Битрейт : 224 Кбит/сек
Каналы : 6 каналов
Расположение каналов : Front: L C R, Side: L R, LFE
Частота : 48,0 КГц
Битовая глубина : 16 бит
Метод сжатия : С потерями
Размер потока : 144 Мбайт (10%)
Заголовок : 6 ch
Язык : Russian
Default : Нет
Forced : Да



Скачать Генералы.песчаных.карьеров.The.Sandpit.Generals.(Холл.Бартлетт.Hall.Bartlett).[1971.драма.боевик.мелодрама.романс.DVDRip-AVC].[DUB].torrent без регистрации
Золото ЗОЛОТАЯ РАЗДАЧА! СКАЧАННОЕ НЕ ЗАСЧИТЫВАЕТСЯ! Золото
Дата: Зарегистрирован   [ Тип: внутренний ] Как тут cкачать?
MAGNET ссылка
MAGNET ссылка


Скачать .torrent

17 KB

Статус: проверено DHT
Скачан: торрент - 175 раз, раздача полностью - 43 раз
Размер: 1,62 GB
Оценка:  - (Голосов: 0)
Поблагодарили: 4
Поделиться ссылкой на эту раздачу с друзьями:
В контактеFacebookОдноклассникиTwitterLivejournalМой МирLiveinternet
 

 
Показать сообщения:    


Вы не можете начинать темы
Вы не можете отвечать на сообщения
Вы не можете редактировать свои сообщения
Вы не можете удалять свои сообщения
Вы не можете голосовать в опросах
Вы не можете прикреплять файлы к сообщениям
Вы можете скачивать файлы