Loading...
Error

Скачать В бегах: Невинная мишень / Fugitive X: Innocent Target (Дэвид Хэвенер / David Heavener) [1996 г., боевик, DVDRip] [AVO] (Сербин) торрент без регистрации

 
Статистика раздачи
Размер:  1,15 GB   |    Скачан:  149 раз
Сидов:  1  [  0 KB/s  ]  
 
Автор Сообщение

leon030982

[] 

В бегах: Невинная мишень / Fugitive X: Innocent Target

Год выпуска: 1996
Страна: США
Жанр: боевик
Продолжительность: 01:34:17
Перевод: Авторский (одноголосый) Сербин

Режиссер: Дэвид Хэвенер / David Heavener

В ролях: Ричард Нортон, Дэвид Хэвенер, Уильям Уиндом, Линн Холли Джонсон, Кристофер Митчэм, Роберт З'Дар, Дженнифер Мо, Клемент фон Франкенштейн, Джефф Хиксон, Ричард Баттиста, Керт Пол, Давита Шарон, Кевин Локи

Описание: Бывший полицейский Адам Трент (Дэвид Хэвенер), ушедший с работы после гибели жены, получает более чем странный подарок на день рождения — его заставляют принять участие в охоте на человека в городских джунглях. Причем, в качестве жертвы. Для того, чтобы игра была более интересной, ему выдали пистолет, а по следу пустили охотников во главе с Уинтерсом (Ричард Нортон). Зрители, следящие за ходом игры по мониторам, тем временем делают ставки...

Рип от
Качество видео: DVDRip
Формат файла: AVI
Видео: 704x528, 23.976 fps, MPEG-4 Visual, 1482 kbps
Аудио 1: 48 kHz, MP3, 2 ch, 192 kbps [Russian]
Аудио 2: 48 kHz, MP3, 2 ch, 192 kbps [English]
General
Format : AVI
Format/Info : Audio Video Interleave
File size : 1.15 GiB
Duration : 1h 34mn
Overall bit rate : 1 752 Kbps
Writing application : VirtualDubModRus 1.5.10.2 (build 2542/release)
Writing library : VirtualDubMod build 2542/release
Video
ID : 0
Format : MPEG-4 Visual
Format profile : Advanced Simple@L5
Format settings, BVOP : Yes
Format settings, QPel : No
Format settings, GMC : No warppoints
Format settings, Matrix : Default (H.263)
Codec ID : XVID
Codec ID/Hint : XviD
Duration : 1h 34mn
Bit rate : 1 482 Kbps
Width : 704 pixels
Height : 528 pixels
Display aspect ratio : 4:3
Frame rate : 23.976 fps
Color space : YUV
Chroma subsampling : 4:2:0
Bit depth : 8 bits
Scan type : Progressive
Bits/(Pixel*Frame) : 0.166
Stream size : 1 000 MiB (85%)
Writing library : XviD 1.2.1 (UTC 2008-12-04)
Audio #1
ID : 1
Format : MPEG Audio
Format version : Version 1
Format profile : Layer 3
Mode : Joint stereo
Codec ID : 55
Codec ID/Hint : MP3
Duration : 1h 34mn
Bit rate mode : Constant
Bit rate : 128 Kbps
Channel(s) : 2 channels
Sampling rate : 48.0 KHz
Stream size : 86.3 MiB (7%)
Alignment : Aligned on interleaves
Interleave, duration : 42 ms (1.00 video frame)
Interleave, preload duration : 504 ms
Audio #2
ID : 2
Format : MPEG Audio
Format version : Version 1
Format profile : Layer 3
Mode : Joint stereo
Codec ID : 55
Codec ID/Hint : MP3
Duration : 1h 34mn
Bit rate mode : Constant
Bit rate : 128 Kbps
Channel(s) : 2 channels
Sampling rate : 48.0 KHz
Stream size : 86.3 MiB (7%)
Alignment : Aligned on interleaves
Interleave, duration : 42 ms (1.00 video frame)
Interleave, preload duration : 504 ms



Скачать В.бегах.Невинная.мишень.Fugitive.X.Innocent.Target.(Дэвид.Хэвенер.David.Heavener).[1996.г.боевик.DVDRip].[AVO].(Сербин).torrent без регистрации
Золото ЗОЛОТАЯ РАЗДАЧА! СКАЧАННОЕ НЕ ЗАСЧИТЫВАЕТСЯ! Золото
Дата: Зарегистрирован   [ Тип: внутренний ] Как тут cкачать?
MAGNET ссылка
MAGNET ссылка


Скачать .torrent

12 KB

Статус: проверено DHT
Скачан: торрент - 149 раз, раздача полностью - 11 раз
Размер: 1,15 GB
Оценка:  - (Голосов: 0)
Поблагодарили: 1
Поделиться ссылкой на эту раздачу с друзьями:
В контактеFacebookОдноклассникиTwitterLivejournalМой МирLiveinternet
 

 
Показать сообщения:    


Вы не можете начинать темы
Вы не можете отвечать на сообщения
Вы не можете редактировать свои сообщения
Вы не можете удалять свои сообщения
Вы не можете голосовать в опросах
Вы не можете прикреплять файлы к сообщениям
Вы можете скачивать файлы