Loading...
Error

Скачать Двойные неприятности / Няньки 2 / Double Trouble (Джон Пэрагон / John Paragon) [1992, боевик, триллер, комедия, криминал, HDTVRip] [MVO] (СТС) + [Оригинал] торрент без регистрации

 
Статистика раздачи
Размер:  838 MB   |    Скачан:  406 раз
Сидов:  1  [  0 KB/s  ]  
 
Автор Сообщение

leon030982

[] 

Двойные неприятности / Няньки 2 / Double Trouble
«Братья-близнецы. Один - хороший полицейский. Другой приносит неприятности.»


Год выпуска: 1992
Страна: США
Жанр: боевик, триллер, комедия, криминал
Продолжительность: 01:26:46
Перевод: Профессиональный (многоголосый закадровый) Студия "СТС" Санкт-Петербург
Cубтитры: нет

Режиссер: Джон Пэрагон / John Paragon

В ролях: Питер Пол, Дэвид Пол, Кристиан Казнс, Джозеф Казнс, Рина Софер, Джэред Мартин

Описание: Банда грабителей драгоценностей подставляет под подозрение братьев-близнецов, один из которых — полицейский, а второй — взломщик-рецидивист. Чтобы проучить обидчиков, они вынуждены стать партнерами. Посреди зажигательных погонь и ураганной стрельбы Дэвид пытается перевоспитать братца Питера и растолковать ему, что воровать — нехорошо!

Качество видео: HDTVRip
Формат видео: AVI
Видео: 608x336 (16:9), 23.976 fps, MPEG4-Visual (XviD) ~1017 kbps avg, 0.20 bit/pixel
Аудио 1: Русский, 48 kHz, MPEG Audio MP3, 2 ch, ~192.00 kbps avg
Аудио 2: Оригинал, 48 kHz, MPEG Audio MP3, 2 ch, ~128.00 kbps avg
Format : AVI
Format/Info : Audio Video Interleave
File size : 838 MiB
Duration : 1h 26mn
Overall bit rate : 1 350 Kbps
Writing application : VirtualDubMod 1.5.10.2 (build 2542/release)
Writing library : VirtualDubMod build 2542/release
Video
ID : 0
Format : MPEG-4 Visual
Format profile : Advanced Simple@L5
Format settings, BVOP : 2
Format settings, QPel : No
Format settings, GMC : No warppoints
Format settings, Matrix : Default (H.263)
Muxing mode : Packed bitstream
Codec ID : XVID
Codec ID/Hint : XviD
Duration : 1h 26mn
Bit rate : 1 017 Kbps
Width : 608 pixels
Height : 336 pixels
Display aspect ratio : 16:9
Frame rate : 23.976 fps
Color space : YUV
Chroma subsampling : 4:2:0
Bit depth : 8 bits
Scan type : Progressive
Compression mode : Lossy
Bits/(Pixel*Frame) : 0.208
Stream size : 631 MiB (75%)
Writing library : XviD 1.3.0.dev55
Audio #1
ID : 1
Format : MPEG Audio
Format version : Version 1
Format profile : Layer 3
Mode : Joint stereo
Codec ID : 55
Codec ID/Hint : MP3
Duration : 1h 26mn
Bit rate mode : Constant
Bit rate : 192 Kbps
Channel(s) : 2 channels
Sampling rate : 48.0 KHz
Compression mode : Lossy
Delay relative to video : 200ms
Stream size : 119 MiB (14%)
Alignment : Split accross interleaves
Interleave, duration : 42 ms (1.00 video frame)
Interleave, preload duration : 500 ms
Audio #2
ID : 2
Format : MPEG Audio
Format version : Version 1
Format profile : Layer 3
Mode : Joint stereo
Codec ID : 55
Codec ID/Hint : MP3
Duration : 1h 26mn
Bit rate mode : Constant
Bit rate : 128 Kbps
Channel(s) : 2 channels
Sampling rate : 48.0 KHz
Compression mode : Lossy
Stream size : 79.4 MiB (9%)
Alignment : Split accross interleaves
Interleave, duration : 42 ms (1.00 video frame)
Interleave, preload duration : 500 ms



Скачать Двойные.неприятности.Няньки.2.Double.Trouble.(Джон.Пэрагон.John.Paragon).[1992.боевик.триллер.комедия.криминал.HDTVRip].[MVO].(СТС).+.[Оригинал].torrent без регистрации
Золото ЗОЛОТАЯ РАЗДАЧА! СКАЧАННОЕ НЕ ЗАСЧИТЫВАЕТСЯ! Золото
Дата: Зарегистрирован   [ Тип: внутренний ] Как тут cкачать?
MAGNET ссылка
MAGNET ссылка


Скачать .torrent

17 KB

Статус: проверено DHT
Скачан: торрент - 406 раз, раздача полностью - 182 раз
Размер: 838 MB
Оценка:  5 (Голосов: 2)
Поблагодарили: 8
Поделиться ссылкой на эту раздачу с друзьями:
В контактеFacebookОдноклассникиTwitterLivejournalМой МирLiveinternet
 

 
Показать сообщения:    


Вы не можете начинать темы
Вы не можете отвечать на сообщения
Вы не можете редактировать свои сообщения
Вы не можете удалять свои сообщения
Вы не можете голосовать в опросах
Вы не можете прикреплять файлы к сообщениям
Вы можете скачивать файлы