Loading...
Error

Скачать Люди Альфа / Alphas (Сезон 2, серии 01-12 из 13) (Зак Пенн) [2012, Фантастика, боевик, драма, WEB-DL] [720p] [DD5.1] [Original] + [rus sub] (notabenoid) торрент без регистрации

 
Статистика раздачи
Размер:  16,12 GB   |    Скачан:  166 раз
Сидов:  1  [  0 KB/s  ]  
 
Автор Сообщение

leon030982

[] 

Люди Альфа / Alphas


Год выпуска: 2012
Страна: США, SyFy
Жанр: Фантастика, боевик, драма
Продолжительность: 00:44:00
Перевод: Отсутствует
Русские субтитры: есть
Автор перевода: отредактированный notabenoid
Субтитры: Русские и Английские

Режиссёр: Зак Пенн

В ролях: Дэвид Стретхерн, Райан Картрайт, Азита Ганизада, Лаура Меннелл, Малик Йоба, УорренКристи
и др.

Описание: Эксперт министерства обороны Ли Розен возглавляет подразделение специалистов, обладающих уникальными способностями. Каждый из пяти членов его команды - человек со сверх развитыми психофизическими возможностями. В разработку группы Альфа попадают исключительно сверх сложные задания, с которыми не могут справиться американские спецслужбы - ФБР и ЦРУ. По отдельности каждый из агентов мало чем отличается от обычных людей и в одиночку не способен на что-то экстраординарное, но вместе они могут творить чудеса.

Доп. информация:
В качестве бонуса, на 43-й минуте первой серии, я перевел рекламу нового сериала Defiance, она длится примерно 4 минуты, очень советую посмотреть этот бонус, поверьте, вы узнаете что это не просто сериал, это нечто большее...
| Сэмпл | IMDB
Качество: WEB-DL 720p
Формат: MKV
Видео кодек: H.264
Аудио кодек: AC3
Видео: AVC, 1280x720, 23.976 fps, 4 152 Kbps, 0.188
Аудио: AC-3, 48.0 KHz, 6 channels, 384 Kbps
Добавлена 10-я серия (05.10.2012)
Unique ID : 174489691403539525584663656475827560637 (0x83457DFE98E89791966E7B23CBD6E0BD)
Complete name : Alphas.S02E01.720p.WEB-DL.DD5.1.H.264-KiNGS.mkv
Format : Matroska
Format version : Version 2
File size : 1.54 GiB
Duration : 47mn 45s
Overall bit rate : 4 628 Kbps
Encoded date : UTC 2012-07-26 16:16:17
Writing application : mkvmerge v5.7.0 ('The Whirlwind') built on Jul 8 2012 20:08:51
Writing library : libebml v1.2.3 + libmatroska v1.3.0
Video
ID : 1
Format : AVC
Format/Info : Advanced Video Codec
Format profile : High@L3.1
Format settings, CABAC : No
Format settings, ReFrames : 2 frames
Format settings, GOP : M=2, N=28
Codec ID : V_MPEG4/ISO/AVC
Duration : 47mn 45s
Bit rate : 4 152 Kbps
Width : 1 280 pixels
Height : 720 pixels
Display aspect ratio : 16:9
Frame rate : 23.976 fps
Color space : YUV
Chroma subsampling : 4:2:0
Bit depth : 8 bits
Scan type : Progressive
Bits/(Pixel*Frame) : 0.188
Stream size : 1.38 GiB (90%)
Language : English
Color primaries : BT.709-5, BT.1361, IEC 61966-2-4, SMPTE RP177
Transfer characteristics : BT.709-5, BT.1361
Matrix coefficients : BT.709-5, BT.1361, IEC 61966-2-4 709, SMPTE RP177
Audio
ID : 2
Format : AC-3
Format/Info : Audio Coding 3
Mode extension : CM (complete main)
Codec ID : A_AC3
Duration : 47mn 45s
Bit rate mode : Constant
Bit rate : 384 Kbps
Channel(s) : 6 channels
Channel positions : Front: L C R, Side: L R, LFE
Sampling rate : 48.0 KHz
Bit depth : 16 bits
Compression mode : Lossy
Stream size : 131 MiB (8%)
Language : English
Text #1
ID : 3
Format : UTF-8
Codec ID : S_TEXT/UTF8
Codec ID/Info : UTF-8 Plain Text
Title : Russian
Language : Russian
Text #2
ID : 4
Format : UTF-8
Codec ID : S_TEXT/UTF8
Codec ID/Info : UTF-8 Plain Text
Title : English
Language : English
Внимание! Раздача ведётся путём добавления новых серий; при каждом добавлении создаётся новый торрент. Чтобы начать докачку новой серии, пользователям необходимо сделать следующее:
(1) остановить скачивание,
(2) удалить старый торрент у себя из клиента (старые серии удалять не надо),
(3) скачать новый торрент и запустить его у себя в клиенте вместо старого, при этом указать клиенту путь в старую папку куда и должно происходить скачивание новых серий.
Ваш клиент при этом должен произвести хеширование (проверку) старой папки (если не производит сам - помогите ему сделать это), и будет докачивать только те серии которых у вас ещё нет. Старые серии при этом не удаляются, а продолжают раздаваться!
Eсли вы уже удалили старые серии, то предотвратить повторную закачку старых серий можно, отжав галочку в соответствующих местах при запуске нового торрента. По возможности, желательно не удалять старые серии как можно дольше чтобы релизёр не столько продолжал раздавать старые серии, а смог сконцентрироваться на новых.



Скачать Люди.Альфа.Alphas.(Сезон.2.серии.01-12.из.13).(Зак.Пенн).[2012.Фантастика.боевик.драма.WEB-DL].[720p].[DD5.1].[Original].+.[rus.sub].(notabenoid).torrent без регистрации
Золото ЗОЛОТАЯ РАЗДАЧА! СКАЧАННОЕ НЕ ЗАСЧИТЫВАЕТСЯ! Золото
Дата: Зарегистрирован   [ Тип: внутренний ] Как тут cкачать?
MAGNET ссылка
MAGNET ссылка


Скачать .torrent

44 KB

Статус: проверено DHT
Скачан: торрент - 166 раз, раздача полностью - 18 раз
Размер: 16,12 GB
Оценка:  - (Голосов: 0)
Поблагодарили: 2
Поделиться ссылкой на эту раздачу с друзьями:
В контактеFacebookОдноклассникиTwitterLivejournalМой МирLiveinternet
 

 
Показать сообщения:    


Вы не можете начинать темы
Вы не можете отвечать на сообщения
Вы не можете редактировать свои сообщения
Вы не можете удалять свои сообщения
Вы не можете голосовать в опросах
Вы не можете прикреплять файлы к сообщениям
Вы можете скачивать файлы