Loading...
Error

/ Alphas ( 2 ) ( ) [2012, , , , , WEB-DL] [720p] [MVO] (LostFilm)

 
18,77 GB   |    :  253

: 25

 

leon030982

[] 


/ Alphas
2 / Season 2

: 2012
:
: , , ,
: ~00:43:00
: - LostFilm

:

: , , , , , , -, , ,

: , , . , .


:


: http://multi-up.com/738667
: WEB-DL 720p
: MKV
: H.264
: AC3
: 1280x720 at 23.976 fps, MPEG-4 AVC, ~4000 kbps avg, 0.18 bit/pixel
#1: : 48 kHz, AC3, 3/2 (L,C,R,l,r) + LFE ch, ~384 kbps avg | , LostFilm|
#2: : 48 kHz, AC3, 3/2 (L,C,R,l,r) + LFE ch, ~384.00 kbps avg
:
1. Wake Up Call /
2. The Quick and the Dead /

:

General
Complete name : Alphas.S02E01.720p.WEB-DL.Rus.Eng.HDCLUB.mkv
Format : Matroska
Format version : Version 2
File size : 1.53 GiB
Duration : 43mn 51s
Overall bit rate : 4 991 Kbps
Movie name : Alphas [Season 2] (2012) - Release for HDCLUB
Encoded date : UTC 2012-07-27 20:54:04
Writing application : mkvmerge v5.7.0 ('The Whirlwind') built on Jul 8 2012 20:08:51
Writing library : libebml v1.2.3 + libmatroska v1.3.0
Video
ID : 1
Format : AVC
Format/Info : Advanced Video Codec
Format profile : High@L3.1
Format settings, CABAC : No
Format settings, ReFrames : 2 frames
Format settings, GOP : N=1
Codec ID : V_MPEG4/ISO/AVC
Duration : 43mn 51s
Bit rate : 4 123 Kbps
Width : 1 280 pixels
Height : 720 pixels
Display aspect ratio : 16:9
Frame rate : 23.976 fps
Color space : YUV
Chroma subsampling : 4:2:0
Bit depth : 8 bits
Scan type : Progressive
Bits/(Pixel*Frame) : 0.187
Stream size : 1.26 GiB (83%)
Title : Alphas 2x01: Wake Up Call / - Release for HDCLUB
Language : English
Default : Yes
Forced : No
Color primaries : BT.709-5, BT.1361, IEC 61966-2-4, SMPTE RP177
Transfer characteristics : BT.709-5, BT.1361
Matrix coefficients : BT.709-5, BT.1361, IEC 61966-2-4 709, SMPTE RP177
Audio #1
ID : 2
Format : AC-3
Format/Info : Audio Coding 3
Mode extension : CM (complete main)
Codec ID : A_AC3
Duration : 43mn 51s
Bit rate mode : Constant
Bit rate : 384 Kbps
Channel(s) : 6 channels
Channel positions : Front: L C R, Side: L R, LFE
Sampling rate : 48.0 KHz
Bit depth : 16 bits
Compression mode : Lossy
Stream size : 120 MiB (8%)
Title : LostFilm
Language : Russian
Default : Yes
Forced : No
Audio #2
ID : 3
Format : AC-3
Format/Info : Audio Coding 3
Mode extension : CM (complete main)
Codec ID : A_AC3
Duration : 43mn 51s
Bit rate mode : Constant
Bit rate : 384 Kbps
Channel(s) : 6 channels
Channel positions : Front: L C R, Side: L R, LFE
Sampling rate : 48.0 KHz
Bit depth : 16 bits
Compression mode : Lossy
Stream size : 120 MiB (8%)
Language : English
Default : No
Forced : No
Text
ID : 4
Format : UTF-8
Codec ID : S_TEXT/UTF8
Codec ID/Info : UTF-8 Plain Text
Language : English
Default : No
Forced : No
! , . , :
(1) ,
(2) ( ),
(3) , .
() ( - ), . , !
, , . , , .



..Alphas.(.2.).(.).[2012.....WEB-DL].[720p].[MVO].(LostFilm).torrent
  ! ! 
:   [ : ] c?
MAGNET
MAGNET


.torrent

95 KB

: DHT
: - 253 , - 155
: 18,77 GB
4,7 (: 3)
: 9
:
 FacebookTwitterLivejournal Liveinternet
 

 

Sharon

[] 

. " " . . .
 

leon030982

[] 

Sharon ():

. " " . . .
ab
 
: