Loading...
Error

Скачать Мутанты / Mutants (Давид Морли) [2009, ужасы, фантастика, драма, BDRip] [720p] [DVO] торрент без регистрации

 
Статистика раздачи
Размер:  4,54 GB   |    Скачан:  124 раза

Полного источника не было: 20 минут

 
Автор Сообщение

МихаНЕзатор

[] 

Информация о фильме
Название: Мутанты
Оригинальное название: Mutants
Год выхода: 2009
Жанр: ужасы, фантастика, драма
Режиссер: Давид Морли / David Morlet
В ролях: Элен де Фужроль, Франсис Рено, Дида Диафат, Николя Бриансон, Луз Мэндон, Джастин Брунэо Де Ла Салль

О фильме:
В мире, разрушенном вирусом пандемии, который превратил людей в примитивных и жаждущих крови существ, Марко и Соня должны найти секретную базу, чтобы избежать встречи с «мутантами». Когда же последние атакуют их, Марко заражается. Мало-помалу, в его организме начинают происходить необратимые изменения. Соня, ожидающая ребенка, вынуждена бороться со своим худшим врагом человеком, которого она любит больше всего на свете.



Рейтинг R - Детям до 17 лет обязательно присутствие родителей

Страна: Франция
Студия: Canal+ [fr]
Продолжительность: 01:29:15
Перевод: Любительский двухголосый + оригинал

Файл
Кодек: H.264
Качество: BDRip 720p
Видео: AVC; 1280x688; 5377 Kbps; 23,976 fps
Звук:
Аудио #1: Русский; AC3; 48.0 KHz; 384 Kbps; 2 ch
Аудио #2: Французский; DTS; 48.0 KHz; 1536 Kbps; 6 ch
Общее
Полное имя : D:VideoMutants.2009.BDRip.720p.x264.mkv
Формат : Matroska
Версия формата : Version 1
Размер файла : 4,54 Гбайт
Продолжительность : 1 ч. 29 м.
Общий поток : 7267 Кбит/сек
Дата кодирования : UTC 2012-02-01 04:28:08
Программа кодирования : mkvmerge v2.4.0
Библиотека кодирования : libebml v0.7.7 + libmatroska v0.8.1

Видео
Идентификатор : 1
Формат : AVC
Формат/Информация : Advanced Video Codec
Профиль формата : High@L4.1
Параметр CABAC формата : Да
Параметр ReFrames формата : 8 кадров
Идентификатор кодека : V_MPEG4/ISO/AVC
Продолжительность : 1 ч. 29 м.
Битрейт : 5377 Кбит/сек
Ширина : 1280 пикселей
Высота : 688 пикселей
Соотношение сторон : 1,85:1
Частота кадров : 23,976 кадра/сек
Цветовое пространство : YUV
Субдискретизация насыщенности : 4:2:0
Битовая глубина : 8 бит
Тип развёртки : Прогрессивная
Бит/(Пиксели*Кадры) : 0.255
Размер потока : 3,26 Гбайт (72%)
Заголовок : Mutants.2009.Blu-ray.Re.720p.x264.DTS
Библиотека кодирования : x264 core 68 r1183M f21daff
Настройки программы : cabac=1 / ref=8 / deblock=1:-3:-3 / analyse=0x3:0x113 / me=umh / subme=9 / psy_rd=1.2:0.2 / mixed_ref=1 / me_range=32 / chroma_me=1 / trellis=1 / 8x8dct=1 / cqm=0 / deadzone=21,11 / chroma_qp_offset=-3 / threads=12 / nr=0 / decimate=0 / mbaff=0 / bframes=3 / b_pyramid=1 / b_adapt=2 / b_bias=0 / direct=1 / wpredb=1 / keyint=250 / keyint_min=25 / scenecut=40 / rc=2pass / bitrate=5377 / ratetol=1.0 / qcomp=0.60 / qpmin=10 / qpmax=51 / qpstep=4 / cplxblur=20.0 / qblur=0.5 / vbv_maxrate=50000 / vbv_bufsize=50000 / ip_ratio=1.40 / pb_ratio=1.30 / aq=1:1.00
Язык : English
Default : Да
Forced : Нет

Аудио #1
Идентификатор : 2
Формат : AC-3
Формат/Информация : Audio Coding 3
Расширение режима : CM (complete main)
Параметр Endianness формата : Big
Идентификатор кодека : A_AC3
Продолжительность : 1 ч. 29 м.
Вид битрейта : Постоянный
Битрейт : 384 Кбит/сек
Каналы : 2 канала
Расположение каналов : Front: L R
Частота : 48,0 КГц
Битовая глубина : 16 бит
Метод сжатия : С потерями
Задержка видео : 12 мс.
Размер потока : 245 Мбайт (5%)
Заголовок : Russian AC3 384 Kbps
Язык : Russian
Default : Да
Forced : Нет

Аудио #2
Идентификатор : 3
Формат : DTS
Формат/Информация : Digital Theater Systems
Идентификатор кодека : A_DTS
Продолжительность : 1 ч. 29 м.
Вид битрейта : Постоянный
Битрейт : 1510 Кбит/сек
Каналы : 6 каналов
Расположение каналов : Front: L C R, Side: L R, LFE
Частота : 48,0 КГц
Битовая глубина : 16 бит
Метод сжатия : С потерями
Размер потока : 965 Мбайт (21%)
Заголовок : English DTS 1536kb/s
Язык : English
Default : Нет
Forced : Нет











Релиз от:



Скачать Мутанты.Mutants.(Давид.Морли).[2009.ужасы.фантастика.драма.BDRip].[720p].[DVO].torrent без регистрации
Золото ЗОЛОТАЯ РАЗДАЧА! СКАЧАННОЕ НЕ ЗАСЧИТЫВАЕТСЯ! Золото
Дата: Зарегистрирован   [ Тип: внутренний ] Как тут cкачать?
MAGNET ссылка
MAGNET ссылка


Скачать .torrent

12 KB

Статус: проверено DHT
Скачан: торрент - 124 раз, раздача полностью - 261 раз
Размер: 4,54 GB
Оценка:  - (Голосов: 0)
Поблагодарили: 1
Поделиться ссылкой на эту раздачу с друзьями:
В контактеFacebookОдноклассникиTwitterLivejournalМой МирLiveinternet
 

 
Показать сообщения:    


Вы не можете начинать темы
Вы не можете отвечать на сообщения
Вы не можете редактировать свои сообщения
Вы не можете удалять свои сообщения
Вы не можете голосовать в опросах
Вы не можете прикреплять файлы к сообщениям
Вы можете скачивать файлы