Loading...
Error

Скачать Луна 44 / Moon 44 (Роланд Эммерих) [1990, фантастика, боевик, триллер, DVDRip] [Dub] торрент без регистрации

 
Статистика раздачи
Размер:  747 MB   |    Скачан:  144 раза
Сидов:  1  [  0 KB/s  ]  
 
Автор Сообщение

Marsianka

[] 

Луна 44 / Moon 44
«Запрещён к показу в 2038 году.»

Информация о фильме
Название: Луна 44
Оригинальное название: Moon 44
Год выхода: 1990
Жанр: фантастика, боевик, триллер
Режиссер: Роланд Эммерих / Roland Emmerich
В ролях: Майкл Паре, Лиза Айкхорн, Дин Девлин, Брайан Томпсон, Малкольм МакДауэлл, Стивен Джеффрис, Леон Риппи, Йохен Никель, Мехмет Йилмаз, Джон Марч

О фильме:
Галактическая Горнодобывающая Корпорация получает информацию о том, что их роботы похищаются с Луны-44, и отправляет на станцию детектива Стоуна для расследования. Стоун вынужден действовать под прикрытием в качестве одного из заключенных, которых отправляют на Луну 44, чтобы пилотировать специальные вертолеты.Но он не знает, что командир станции майор Ли проинструктирован в случае нападения на Луну-44 пожертвовать людьми ради спасения роботов. И когда детектив выслеживает предателей, ему приходится сражаться на два фронта, пытаясь спасти и людей, и роботов от уничтожения.



Страна: Германия (ФРГ)
Студия: Centropolis Film Productions
Продолжительность: 01:35:27
Перевод: Профессиональный (дублированный) Советский дубляж

Файл
Кодек: XviD
Качество: DVDRip
Видео: 656x288 (2.28:1), 25 fps, XviD build 50 ~892 kbps avg, 0.19 bit/pixel
Звук: 48 kHz, AC3 Dolby Digital, 2/0 (L,R) ch, ~192.00 kbps avg
Общее
Полное имя : D:VideoLuna.44.DVDRip.avi
Формат : AVI
Формат/Информация : Audio Video Interleave
Размер файла : 747 Мбайт
Продолжительность : 1 ч. 35 м.
Общий поток : 1094 Кбит/сек
Программа кодирования : VirtualDubMod 1.5.10.2
Библиотека кодирования : VirtualDubMod build 2540/release

Видео
Идентификатор : 0
Формат : MPEG-4 Visual
Профиль формата : Advanced Simple@L5
Параметр BVOP формата : 1
Параметр QPel формата : Нет
Параметр GMC формата : Без точки перехода
Параметр матрицы формата : Выборочная
Идентификатор кодека : XVID
Идентификатор кодека/Подсказка : XviD
Продолжительность : 1 ч. 35 м.
Битрейт : 893 Кбит/сек
Ширина : 656 пикселей
Высота : 288 пикселей
Соотношение сторон : 2,25:1
Частота кадров : 25,000 кадров/сек
Цветовое пространство : YUV
Субдискретизация насыщенности : 4:2:0
Битовая глубина : 8 бит
Тип развёртки : Прогрессивная
Метод сжатия : С потерями
Бит/(Пиксели*Кадры) : 0.189
Размер потока : 610 Мбайт (82%)
Библиотека кодирования : XviD 1.2.1 (UTC 2008-12-04)

Аудио
Идентификатор : 1
Формат : AC-3
Формат/Информация : Audio Coding 3
Расширение режима : CM (complete main)
Параметр Endianness формата : Big
Идентификатор кодека : 2000
Продолжительность : 1 ч. 35 м.
Вид битрейта : Постоянный
Битрейт : 192 Кбит/сек
Каналы : 2 канала
Расположение каналов : Front: L R
Частота : 48,0 КГц
Битовая глубина : 16 бит
Метод сжатия : С потерями
Размер потока : 131 Мбайт (18%)
Выравнивание : Разделение по промежуткам
Продолжительность промежутка : 40 мс. (1,00 видеокадр)
Время предзагрузки промежутка : 500 мс.










Релиз от:



Скачать Луна.44.Moon.44.(Роланд.Эммерих).[1990.фантастика.боевик.триллер.DVDRip].[Dub].torrent без регистрации
Золото ЗОЛОТАЯ РАЗДАЧА! СКАЧАННОЕ НЕ ЗАСЧИТЫВАЕТСЯ! Золото
Дата: Зарегистрирован   [ Тип: внутренний ] Как тут cкачать?
MAGNET ссылка
MAGNET ссылка


Скачать .torrent

15 KB

Статус: проверено DHT
Скачан: торрент - 144 раз, раздача полностью - 33 раз
Размер: 747 MB
Оценка:  5 (Голосов: 2)
Поблагодарили: 6
Поделиться ссылкой на эту раздачу с друзьями:
В контактеFacebookОдноклассникиTwitterLivejournalМой МирLiveinternet
 

 
Показать сообщения:    


Вы не можете начинать темы
Вы не можете отвечать на сообщения
Вы не можете редактировать свои сообщения
Вы не можете удалять свои сообщения
Вы не можете голосовать в опросах
Вы не можете прикреплять файлы к сообщениям
Вы можете скачивать файлы