Loading...
Error

Скачать Человек в синем / The Boy in Blue (Чарльз Джэррот) [1986, Драма, биография, спорт, BDRip-AVC] [AVO]+[Sub] торрент без регистрации

 
Статистика раздачи
Размер:  1,46 GB   |    Скачан:  105 раз
Сидов:  1  [  0 KB/s  ]  
 
Автор Сообщение

Marsianka

[] 

Страна: Канада
Год выпуска: 1986
Продолжительность: 01:37:18
Жанр: Драма, биография, спорт
Перевод: Авторский одноголосый закадровый (Алексеев)
Субтитры: Русские
Режиссер: Чарльз Джэррот / Charles Jarrott
В ролях: Николас Кейдж, Синтия Дэйл, Кристофер Пламмер, Дэвид Нотон, Шон Салливан, Мелоди Андерсон, Джеймс Б. Дуглас, Уолтер Мэсси, Остин Уиллис, Филип Крэйг
Описание: Фильм повествует о жизни канадского гребца Неда Ханлана, чья карьера стремительно началась в 1880-х годх, и резко оборвалась из-за полученной травмы ног В этой драме, происходящей в конце XIX века и основанной на реальной истории, жизни Нэда Хэнлана (Николас Кейдж), молодого преступника, который превращается в гребца мирового класса. Увидев в Хэнлане возможность сделать легкие деньги, Билл (Девид Хотон), любитель азартных игр, решает обучить Хэнлана и содействовать ему в мировых достижениях. Со временем у Хэнлана растёт талант и слава, достигнув вершины чемпионата мира, выиграв награды на трёх континентах, он стал первым гребцом, который использовал "скользящее сидение". Но всё усложняется, когда Хэнлан становится жертвой недобросовестного предпринимателя (Кристофер Пламмер), который показал Хэнлану, какую цену иногда приходится платить за известность.
Киностудия: Canadian Broadcasting Corporation (CBC); Regatta Productions; T™l™film Canada.
Дистрибьютор: 20th Century Fox.

Исходник: Blu-ray 1080p
Качество: BDRip-AVC
Формат: MKV

Видео: 944х512 (16:9), 23,976 fps, H264 ~ 1692 kbps avg, 0.146 bit/pixel
Аудио: 48 kHz, Dolby AC3, 6 ch, 448.00 kbps Русский
Формат субтитров: SoftSub (srt)
Раздача от:

Общее
Полное имя : Chelovek.v.sinem.1986.A.BDRip-AVC_[Youtracker].mkv
Формат : Matroska
Версия формата : Version 2
Размер файла : 1,46 Гбайт
Продолжительность : 1 ч. 37 м.
Общий поток : 2141 Кбит/сек
Название фильма : Chelovek.v.sinem.1986.A.BDRip-AVC[Youtracker] AVP Studio
Дата кодирования : UTC 2012-08-12 08:35:30
Программа кодирования : mkvmerge v5.6.0 ('Kenya Kane') built on May 27 2012 16:44:04
Библиотека кодирования : libebml v1.2.3 + libmatroska v1.3.0

Видео
Идентификатор : 1
Формат : AVC
Формат/Информация : Advanced Video Codec
Профиль формата : High@L4.1
Параметр CABAC формата : Да
Параметр ReFrames формата : 11 кадров
Идентификатор кодека : V_MPEG4/ISO/AVC
Продолжительность : 1 ч. 37 м.
Битрейт : 1692 Кбит/сек
Ширина : 944 пикселя
Высота : 512 пикселей
Соотношение сторон : 16:9
Частота кадров : 23,976 кадра/сек
Цветовое пространство : YUV
Субдискретизация насыщенности : 4:2:0
Битовая глубина : 8 бит
Тип развёртки : Прогрессивная
Бит/(Пиксели*Кадры) : 0.146
Размер потока : 1,12 Гбайт (77%)
Заголовок : Источник Blu-ray 1080
Библиотека кодирования : x264 core 119 r2106 07efeb4
Настройки программы : cabac=1 / ref=11 / deblock=1:-2:-1 / analyse=0x3:0x113 / me=umh / subme=9 / psy=1 / psy_rd=1.00:0.10 / mixed_ref=1 / me_range=32 / chroma_me=1 / trellis=2 / 8x8dct=1 / cqm=0 / deadzone=21,11 / fast_pskip=1 / chroma_qp_offset=-3 / threads=9 / sliced_threads=0 / nr=0 / decimate=1 / interlaced=0 / bluray_compat=0 / constrained_intra=0 / bframes=10 / b_pyramid=2 / b_adapt=2 / b_bias=0 / direct=3 / weightb=1 / open_gop=0 / weightp=2 / keyint=240 / keyint_min=23 / scenecut=40 / intra_refresh=0 / rc_lookahead=80 / rc=2pass / mbtree=1 / bitrate=1692 / ratetol=1.0 / qcomp=0.60 / qpmin=0 / qpmax=69 / qpstep=4 / cplxblur=20.0 / qblur=0.5 / ip_ratio=1.40 / aq=2:0.90
Язык : English
Default : Да
Forced : Нет

Аудио
Идентификатор : 2
Формат : AC-3
Формат/Информация : Audio Coding 3
Расширение режима : CM (complete main)
Идентификатор кодека : A_AC3
Продолжительность : 1 ч. 37 м.
Вид битрейта : Постоянный
Битрейт : 448 Кбит/сек
Каналы : 6 каналов
Расположение каналов : Front: L C R, Side: L R, LFE
Частота : 48,0 КГц
Битовая глубина : 16 бит
Метод сжатия : С потерями
Размер потока : 312 Мбайт (21%)
Заголовок : Источник Blu-ray 1080
Язык : Russian
Default : Да
Forced : Нет

Текст #1
Идентификатор : 3
Формат : UTF-8
Идентификатор кодека : S_TEXT/UTF8
Идентификатор кодека/Информация : UTF-8 Plain Text
Заголовок : Источник Blu-ray 1080
Default : Да
Forced : Нет

Текст #2
Идентификатор : 4
Формат : UTF-8
Идентификатор кодека : S_TEXT/UTF8
Идентификатор кодека/Информация : UTF-8 Plain Text
Заголовок : Источник Blu-ray 1080
Default : Нет
Forced : Нет

Меню
00:00:00.000 : en:00:00:00.000
00:10:59.075 : en:00:10:59.075
00:20:43.576 : en:00:20:43.576
00:30:01.133 : en:00:30:01.133
00:41:02.585 : en:00:41:02.585
00:51:02.268 : en:00:51:02.268
00:59:44.372 : en:00:59:44.372
01:10:17.338 : en:01:10:17.338
01:19:58.335 : en:01:19:58.335
01:33:14.589 : en:01:33:14.589



Скачать Человек.в.синем.The.Boy.in.Blue.(Чарльз.Джэррот).[1986.Драма.биография.спорт.BDRip-AVC].[AVO]+[Sub].torrent без регистрации
Золото ЗОЛОТАЯ РАЗДАЧА! СКАЧАННОЕ НЕ ЗАСЧИТЫВАЕТСЯ! Золото
Дата: Зарегистрирован   [ Тип: внутренний ] Как тут cкачать?
MAGNET ссылка
MAGNET ссылка


Скачать .torrent

15 KB

Статус: проверено DHT
Скачан: торрент - 105 раз, раздача полностью - 0 раз
Размер: 1,46 GB
Оценка:  - (Голосов: 0)
Поблагодарили: 0
Поделиться ссылкой на эту раздачу с друзьями:
В контактеFacebookОдноклассникиTwitterLivejournalМой МирLiveinternet
 

 
Показать сообщения:    


Вы не можете начинать темы
Вы не можете отвечать на сообщения
Вы не можете редактировать свои сообщения
Вы не можете удалять свои сообщения
Вы не можете голосовать в опросах
Вы не можете прикреплять файлы к сообщениям
Вы можете скачивать файлы