Loading...
Error

Скачать Сквозь строй / The Gauntlet (Клинт Иствуд) [1977, боевик, триллер, драма, комедия, криминал, BDRip-AVC] [MVO] торрент без регистрации

 
Статистика раздачи
Размер:  1,37 GB   |    Скачан:  129 раз

Полного источника не было: 20 минут

 
Автор Сообщение

Marsianka

[] 

Сквозь строй / The Gauntlet (1977) BDRip-AVC

Информация о фильме
Название: Сквозь строй
Оригинальное название: The Gauntlet
Год выхода: 1977
Жанр: боевик, триллер, драма, комедия, криминал
Режиссер: Клинт Иствуд
В ролях: Клинт Иствуд, Сондра Лок, Пэт Хингл, Уильям Принц, Билл МакКинни, Майкл Кавана, Кэрол Кук, Мара Кордей, Даг МакГрат, Джеф Моррис, Аль Сильвани, Фритц Мэйнс, Роджер Лоу, Дарвин Ламб, Томас Х. Фридкин, Джеймс В. Гэвин, Рон Чэпман, Милдред Брайон, Тедди Беар, Роберт Баррет, Карвер Барнс, Дэн Вадис, Рой Дженсон, Саманта Доан

О фильме:
Мечты детектива Бена Шокли о настоящем, «большом» деле утонули в болоте одиноких лет и омуте «Джека Дэниэлса&raquo. Новое задание полицейского привезти из Лас-Вегаса «обычного свидетеля по обычному делу» тоже, на первый взгляд, сильно отличается от прекрасного подвига. Но тут наш герой очень ошибался



Страна: США
Продолжительность: 01;49:11
Перевод: Профессиональный (многоголосый закадровый)

Файл
Кодек: h.264
Качество: BDRip-AVC
Видео: 1024x422 (2,40:1), 23.976 fps, 1600 kbps, 0.154 bit/pixel
Аудио: 48 kHz, AC3, 2/0 (L,R) ch, 192.00 kbps

Общее
Уникальный идентификатор : 254115886956949730867436333682902258143 (0xBF2CF089DAB99D3888022448ADD951DF)
Полное имя : D:The Gauntlet.1977.BDRip-AVC.mkv
Формат : Matroska
Версия формата : Version 2
Размер файла : 1,37 Гбайт
Продолжительность : 1 ч. 49 м.
Общий поток : 1794 Кбит/сек
Название фильма : Сквозь строй / The Gauntlet (1977) BDRip-AVC rip by Rulya74
Дата кодирования : UTC 2012-08-14 04:08:34
Программа кодирования : mkvmerge v5.7.0 ('The Whirlwind') built on Jul 8 2012 20:08:51
Библиотека кодирования : libebml v1.2.3 + libmatroska v1.3.0

Видео
Идентификатор : 1
Формат : AVC
Формат/Информация : Advanced Video Codec
Профиль формата : High@L4.1
Параметр CABAC формата : Да
Параметр ReFrames формата : 16 кадров
Идентификатор кодека : V_MPEG4/ISO/AVC
Продолжительность : 1 ч. 49 м.
Битрейт : 1600 Кбит/сек
Ширина : 1024 пикселя
Высота : 422 пикселя
Соотношение сторон : 2,40:1
Частота кадров : 23,976 кадра/сек
Цветовое пространство : YUV
Субдискретизация насыщенности : 4:2:0
Битовая глубина : 8 бит
Тип развёртки : Прогрессивная
Бит/(Пиксели*Кадры) : 0.154
Размер потока : 1,19 Гбайт (87%)
Библиотека кодирования : x264 core 125 r2200 999b753
Настройки программы : cabac=1 / ref=16 / deblock=1:-1:-1 / analyse=0x3:0x113 / me=umh / subme=10 / psy=1 / psy_rd=1.00:0.00 / mixed_ref=1 / me_range=32 / chroma_me=1 / trellis=2 / 8x8dct=1 / cqm=0 / deadzone=21,11 / fast_pskip=1 / chroma_qp_offset=-2 / threads=15 / lookahead_threads=2 / sliced_threads=0 / nr=0 / decimate=1 / interlaced=0 / bluray_compat=0 / constrained_intra=0 / bframes=12 / b_pyramid=2 / b_adapt=1 / b_bias=0 / direct=3 / weightb=1 / open_gop=0 / weightp=2 / keyint=240 / keyint_min=23 / scenecut=40 / intra_refresh=0 / rc=2pass / mbtree=0 / bitrate=1600 / ratetol=1.0 / qcomp=0.60 / qpmin=10 / qpmax=51 / qpstep=4 / cplxblur=20.0 / qblur=0.5 / ip_ratio=1.40 / pb_ratio=1.30 / aq=1:1.00
Default : Да
Forced : Нет

Аудио
Идентификатор : 2
Формат : AC-3
Формат/Информация : Audio Coding 3
Профиль формата : Dolby Digital
Расширение режима : CM (complete main)
Идентификатор кодека : A_AC3
Продолжительность : 1 ч. 49 м.
Вид битрейта : Постоянный
Битрейт : 192 Кбит/сек
Каналы : 2 канала
Расположение каналов : Front: L R
Частота : 48,0 КГц
Битовая глубина : 16 бит
Метод сжатия : С потерями
Размер потока : 150 Мбайт (11%)
Заголовок : Профессиональный (многоголосый закадровый)
Язык : Russian
Default : Да
Forced : Нет



Скачать Сквозь.строй.The.Gauntlet.(Клинт.Иствуд).[1977.боевик.триллер.драма.комедия.криминал.BDRip-AVC].[MVO].torrent без регистрации
Золото ЗОЛОТАЯ РАЗДАЧА! СКАЧАННОЕ НЕ ЗАСЧИТЫВАЕТСЯ! Золото
Дата: Зарегистрирован   [ Тип: внутренний ] Как тут cкачать?
MAGNET ссылка
MAGNET ссылка


Скачать .torrent

14 KB

Статус: проверено DHT
Скачан: торрент - 129 раз, раздача полностью - 34 раз
Размер: 1,37 GB
Оценка:  - (Голосов: 0)
Поблагодарили: 2
Поделиться ссылкой на эту раздачу с друзьями:
В контактеFacebookОдноклассникиTwitterLivejournalМой МирLiveinternet
 

 
Показать сообщения:    


Вы не можете начинать темы
Вы не можете отвечать на сообщения
Вы не можете редактировать свои сообщения
Вы не можете удалять свои сообщения
Вы не можете голосовать в опросах
Вы не можете прикреплять файлы к сообщениям
Вы можете скачивать файлы