Loading...
Error

Скачать Убийство первой степени / Murder in the First (Марк Рокко) [1995, триллер, драма, BDRip-AVC] [MVO]+[AVO]+[Оригинал]+[Sub] торрент без регистрации

 
Статистика раздачи
Размер:  2,17 GB   |    Скачан:  122 раза
Сидов:  1  [  0 KB/s  ]  
 
Автор Сообщение

Marsianka

[] 

Убийство первой степени / Murder in the First (1995) BDRip-AVC

Информация о фильме
Название: Убийство первой степени
Оригинальное название: Murder in the First
Год выхода: 1995
Жанр: триллер, драма
Режиссер: Марк Рокко
В ролях: Кристиан Слэйтер, Кевин Бейкон, Гари Олдман, Эмбет Дэвидц, Уильям Х. Мэйси, Стивен Тоболовски, Брэд Дуриф, Р. Ли Эрми, Миа Киршнер, Бен Слэк ...

О фильме:
Оставшись сиротой в 15 лет, Генри Янг украл пять долларов, чтобы накормить маленькую сестру, и был схвачен на месте преступления. Но его первоначально небольшой срок растянулся на долгие годы. За попытку побега из печально знаменитой тюрьмы «Алькатрас» Генри был голым брошен в «каменный мешок» без окна, отопления, постели и умывальника, где провел три года и два месяца.

После освобождения из карцера он был обвинен в убийстве донесшего на него заключенного и приговорен к смертной казни. Не имея практически никаких шансов добиться оправдательного приговора, за дело Генри Янга взялся молодой адвокат Джеймс Стэмфилл



Страна: США, Франция
Продолжительность: 02:02:37
Перевод: Профессиональный (многоголосый закадровый)+ Авторский одноголосый (А. Гаврилов)+ Оригинал (Английский)

Файл
Кодек: h.264
Качество: BDRip-AVC
Видео: 1024x576 (1.80:1), 23,976 fps, 1963 kbps, 0.139 bit/pixel
Аудио#1: 48 kHz, AC3, 2/0 (L,R) ch, 192.00 kbps (Многоголосый)
Аудио#2: 48 kHz, AC3, 2/0 (L,R) ch, 192.00 kbps (А. Гаврилов)
Аудио#3: 48 kHz, AC3, 2/0 (L,R) ch, 192.00 kbps (Английский)
Субтитры: Английские, вшитые отключаемые

Общее
Уникальный идентификатор : 187423864162020235154869529902664954334 (0x8D0085F24933595D9DD85B765CF4B1DE)
Полное имя : D:РаздачиMurder in the First.1995.BDRip-AVC.mkv
Формат : Matroska
Версия формата : Version 2
Размер файла : 2,17 Гбайт
Продолжительность : 2 ч. 2 м.
Общий поток : 2539 Кбит/сек
Название фильма : Убийство первой степени / Murder in the First (1995) BDRip-AVC rip by Rulya74
Дата кодирования : UTC 2012-08-16 19:26:03
Программа кодирования : mkvmerge v5.7.0 ('The Whirlwind') built on Jul 8 2012 20:08:51
Библиотека кодирования : libebml v1.2.3 + libmatroska v1.3.0

Видео
Идентификатор : 1
Формат : AVC
Формат/Информация : Advanced Video Codec
Профиль формата : High@L4.1
Параметр CABAC формата : Да
Параметр ReFrames формата : 10 кадров
Идентификатор кодека : V_MPEG4/ISO/AVC
Продолжительность : 2 ч. 2 м.
Битрейт : 1963 Кбит/сек
Ширина : 1024 пикселя
Высота : 576 пикселей
Соотношение сторон : 16:9
Частота кадров : 23,976 кадра/сек
Цветовое пространство : YUV
Субдискретизация насыщенности : 4:2:0
Битовая глубина : 8 бит
Тип развёртки : Прогрессивная
Бит/(Пиксели*Кадры) : 0.139
Размер потока : 1,64 Гбайт (75%)
Библиотека кодирования : x264 core 125 r2200 999b753
Настройки программы : cabac=1 / ref=10 / deblock=1:-3:-3 / analyse=0x3:0x113 / me=umh / subme=9 / psy=1 / psy_rd=1.00:0.00 / mixed_ref=1 / me_range=32 / chroma_me=1 / trellis=2 / 8x8dct=1 / cqm=0 / deadzone=21,11 / fast_pskip=1 / chroma_qp_offset=-2 / threads=12 / lookahead_threads=2 / sliced_threads=0 / nr=0 / decimate=1 / interlaced=0 / bluray_compat=0 / constrained_intra=0 / bframes=9 / b_pyramid=2 / b_adapt=1 / b_bias=0 / direct=3 / weightb=1 / open_gop=0 / weightp=2 / keyint=240 / keyint_min=23 / scenecut=40 / intra_refresh=0 / rc=2pass / mbtree=0 / bitrate=1963 / ratetol=1.0 / qcomp=0.60 / qpmin=10 / qpmax=51 / qpstep=4 / cplxblur=20.0 / qblur=0.5 / ip_ratio=1.40 / pb_ratio=1.30 / aq=1:1.00
Default : Да
Forced : Нет

Аудио #1
Идентификатор : 2
Формат : AC-3
Формат/Информация : Audio Coding 3
Расширение режима : CM (complete main)
Идентификатор кодека : A_AC3
Продолжительность : 2 ч. 2 м.
Вид битрейта : Постоянный
Битрейт : 192 Кбит/сек
Каналы : 2 канала
Расположение каналов : Front: L R
Частота : 48,0 КГц
Битовая глубина : 16 бит
Метод сжатия : С потерями
Размер потока : 168 Мбайт (8%)
Заголовок : Профессиональный (многоголосый закадровый)
Язык : Russian
Default : Да
Forced : Нет

Аудио #2
Идентификатор : 3
Формат : AC-3
Формат/Информация : Audio Coding 3
Расширение режима : CM (complete main)
Идентификатор кодека : A_AC3
Продолжительность : 2 ч. 2 м.
Вид битрейта : Постоянный
Битрейт : 192 Кбит/сек
Каналы : 2 канала
Расположение каналов : Front: L R
Частота : 48,0 КГц
Битовая глубина : 16 бит
Метод сжатия : С потерями
Размер потока : 168 Мбайт (8%)
Заголовок : Авторский одноголосый (А. Гаврилов)
Язык : Russian
Default : Нет
Forced : Нет

Аудио #3
Идентификатор : 4
Формат : AC-3
Формат/Информация : Audio Coding 3
Расширение режима : CM (complete main)
Идентификатор кодека : A_AC3
Продолжительность : 2 ч. 2 м.
Вид битрейта : Постоянный
Битрейт : 192 Кбит/сек
Каналы : 2 канала
Расположение каналов : Front: L R
Частота : 48,0 КГц
Битовая глубина : 16 бит
Метод сжатия : С потерями
Размер потока : 168 Мбайт (8%)
Заголовок : Оригинал
Язык : English
Default : Нет
Forced : Нет

Текст
Идентификатор : 5
Формат : UTF-8
Идентификатор кодека : S_TEXT/UTF8
Идентификатор кодека/Информация : UTF-8 Plain Text
Язык : English
Default : Нет
Forced : Нет

Меню
00:00:00.000 : en:00:00:00.000
00:03:13.527 : en:00:03:13.527
00:11:24.934 : en:00:11:24.934
00:17:37.014 : en:00:17:37.014
00:22:08.536 : en:00:22:08.536
00:24:55.786 : en:00:24:55.786
00:29:16.964 : en:00:29:16.964
00:32:33.451 : en:00:32:33.451
00:33:22.959 : en:00:33:22.959
00:35:39.054 : en:00:35:39.054
00:37:01.970 : en:00:37:01.970
00:38:57.001 : en:00:38:57.001
00:39:58.479 : en:00:39:58.479
00:43:42.203 : en:00:43:42.203
00:48:34.120 : en:00:48:34.120
00:51:56.030 : en:00:51:56.030
00:54:15.627 : en:00:54:15.627
00:56:32.723 : en:00:56:32.723
00:58:26.920 : en:00:58:26.920
01:00:54.067 : en:01:00:54.067
01:04:21.983 : en:01:04:21.983
01:07:47.480 : en:01:07:47.480
01:11:33.539 : en:01:11:33.539
01:14:38.557 : en:01:14:38.557
01:16:26.290 : en:01:16:26.290
01:20:01.505 : en:01:20:01.505
01:25:12.441 : en:01:25:12.441
01:27:52.559 : en:01:27:52.559
01:30:24.544 : en:01:30:24.544
01:35:40.693 : en:01:35:40.693
01:37:53.242 : en:01:37:53.242
01:41:43.097 : en:01:41:43.097
01:49:19.094 : en:01:49:19.094
01:51:34.271 : en:01:51:34.271
01:53:34.933 : en:01:53:34.933
01:54:59.351 : en:01:54:59.351
01:56:21.975 : en:01:56:21.975
01:58:25.098 : en:01:58:25.098



Скачать Убийство.первой.степени.Murder.in.the.First.(Марк.Рокко).[1995.триллер.драма.BDRip-AVC].[MVO]+[AVO]+[Оригинал]+[Sub].torrent без регистрации
Золото ЗОЛОТАЯ РАЗДАЧА! СКАЧАННОЕ НЕ ЗАСЧИТЫВАЕТСЯ! Золото
Дата: Зарегистрирован   [ Тип: внутренний ] Как тут cкачать?
MAGNET ссылка
MAGNET ссылка


Скачать .torrent

11 KB

Статус: проверено DHT
Скачан: торрент - 122 раз, раздача полностью - 31 раз
Размер: 2,17 GB
Оценка:  - (Голосов: 0)
Поблагодарили: 2
Поделиться ссылкой на эту раздачу с друзьями:
В контактеFacebookОдноклассникиTwitterLivejournalМой МирLiveinternet
 

 
Показать сообщения:    


Вы не можете начинать темы
Вы не можете отвечать на сообщения
Вы не можете редактировать свои сообщения
Вы не можете удалять свои сообщения
Вы не можете голосовать в опросах
Вы не можете прикреплять файлы к сообщениям
Вы можете скачивать файлы