Loading...
Error

Скачать Байки из склепа / Tales from the Crypt (1х1-6 из 6) (Гилберт Адлер) [1989, ужасы, триллер, комедия, эротика, DVDRip] [MVO] + [AVO (Ю.Немахов)]+[Original (Eng)] торрент без регистрации

 
Статистика раздачи
Размер:  3,06 GB   |    Скачан:  186 раз

Полного источника не было: 24 минуты

 
Автор Сообщение

МихаНЕзатор

[] 

Байки из склепа / Tales from the Crypt

Год выпуска: 1989
Страна: США
Жанр: ужасы, триллер, комедия, эротика
Режиссёр: Гилберт Адлер \ Gilbert Adler
Продолжительность: ~ 30 мин
Перевод 1: Профессиональный многоголосый закадровый (Позитив-мультимедиа)
Перевод 2: Авторский одноголосый закадровый (Ю.Немахов) - второй дорожкой
Оригинальная аудио-дорожка: есть (eng)
Субтитры: отсутствуют

В ролях: Эндрю МакКарти, Мэриэл Хемингуэй, Дэвид Хэммингс, Майкл Дж. Фокс, Кайл Маклахлан, Терри Гарр, Бруно Кирби, Малколм Макдауэл, Тим Рот, Джон Гловер, Бо Бриджес, Тони Голдуин, Вупи Голдберг, Джон Райс Дейвис, Джеймс Ремар, Ричард Джордан, Джон Полито, Фэй Грант, Энтони Ла Палья, Кирк Дуглас, Эрик Дуглас, Лэнс Хенриксен, Дэн Айкройд и др.

Описание: “Байки из склепа” – телесериал, созданный по мотивам комиксов Уильяма М. Гейнса, составленный из более чем полусотни сюжетов, представляющих собой короткие страшно юморные истории, рассказанные от лица симпатичного обитателя склепа, сопровождаемые его едкими, зловонными комментариями. Познакомьтесь с некоторыми из историй хищно хмыкнув и зловеще улыбнувшись. Помните – смех продлевает жизнь, а постоянный страх сделает вас бессмертным.

Доп. информация: Серии с начальной заставкой.

Благодаронсти: *Sergeant_am* - создание рипов, прилепление начальной заставки, синхронизация звука.



Качество: DVDRip
Формат: AVI
Видео кодек: DivX
Аудио кодек: AC3
Видео: 640x480 (4:3), 23.976 fps, DivX5 ~2000 kbps avg, 0.27 bit/pixel
Аудио 1: 48 kHz, AC3 Dolby Digital, 2/0 (L,R) ch, ~192.00 kbps avg (MVO) Позитив-мультимедиа
Аудио 2: 48 kHz, AC3 Dolby Digital, 2/0 (L,R) ch, ~192.00 kbps avg (AVO) Ю.Немахов
Аудио 3: 48 kHz, AC3 Dolby Digital, 2/0 (L,R) ch, ~192.00 kbps avg (eng)

После упразднения смертной казни, служащий тюрьмы начинает методично вершить своё правосудие.
В Канун Рождества к женщине, убившей собственного мужа, приходит маньяк в костюме Санты и устраивает смертельную игру в кошки-мышки…
Бездомному вживляют кошачью железу, и он получает восемь шансов избежать смерти. Вскоре «кот» становится звездой смертельных номеров на карнавалах.
Молодая проститутка мечтает о богатом парне. Она спорит с коллегой, что охмурит богатея за 10 дней. Тут то ей и попадается человек, который может дать девушке $10 тыс. в долг, но в залог он возьмет ее...молодость.
Все молодожёны мечтают о счастливом браке. Для них очень важна первая брачная ночь, ведь как встретишь брак, так его и проведешь. Но у жениха и невесты, как оказалось, разные взгляды на эту тему.
Пенсионер не знает чем заняться в свободное время. Жена сошла с ума и помешалась на животных. Терпение мужа-пенсионера в какой-то момент иссякает и он решает связать свое новое хобби с теми, кто мешает ему жить.
Общее
Полное имя : E:\\Байки из склепа\1-ый Сезон\01.avi
Формат : AVI
Формат/Информация : Audio Video Interleave
Размер файла : 517 Мбайт
Продолжительность : 27 м.
Общий поток : 2602 Кбит/сек
Программа кодирования : VirtualDubModRus 1.5.10.2 (build 2542/release)
Библиотека кодирования : VirtualDubMod build 2542/release
Видео
Идентификатор : 0
Формат : MPEG-4 Visual
Профиль формата : Advanced Simple@L5
Параметр BVOP формата : 1
Параметр QPel формата : Нет
Параметр GMC формата : Без точки перехода
Параметр матрицы формата : Default (H.263)
Идентификатор кодека : DX50
Идентификатор кодека/Подсказка : DivX 5
Продолжительность : 27 м.
Битрейт : 2007 Кбит/сек
Ширина : 640 пикселей
Высота : 480 пикселей
Соотношение сторон : 4:3
Частота кадров : 23,976 кадра/сек
Цветовое пространство : YUV
Субдискретизация насыщенности : 4:2:0
Битовая глубина : 8 бит
Тип развёртки : Прогрессивная
Метод сжатия : С потерями
Бит/(Пиксели*Кадры) : 0.272
Размер потока : 398 Мбайт (77%)
Библиотека кодирования : XviD 1.2.1 (UTC 2008-12-04)
Аудио #1
Идентификатор : 1
Формат : AC-3
Формат/Информация : Audio Coding 3
Расширение режима : CM (complete main)
Параметр Endianness формата : Big
Идентификатор кодека : 2000
Продолжительность : 27 м.
Вид битрейта : Постоянный
Битрейт : 192 Кбит/сек
Каналы : 2 канала
Расположение каналов : Front: L R
Частота : 48,0 КГц
Битовая глубина : 16 бит
Метод сжатия : С потерями
Размер потока : 38,1 Мбайт (7%)
Выравнивание : Разделение по промежуткам
Продолжительность промежутка : 42 мс. (1,00 видеокадр)
Время предзагрузки промежутка : 500 мс.
Аудио #2
Идентификатор : 2
Формат : AC-3
Формат/Информация : Audio Coding 3
Расширение режима : CM (complete main)
Параметр Endianness формата : Big
Идентификатор кодека : 2000
Продолжительность : 27 м.
Вид битрейта : Постоянный
Битрейт : 192 Кбит/сек
Каналы : 2 канала
Расположение каналов : Front: L R
Частота : 48,0 КГц
Битовая глубина : 16 бит
Метод сжатия : С потерями
Размер потока : 38,1 Мбайт (7%)
Выравнивание : Разделение по промежуткам
Продолжительность промежутка : 42 мс. (1,00 видеокадр)
Время предзагрузки промежутка : 500 мс.
Аудио #3
Идентификатор : 3
Формат : AC-3
Формат/Информация : Audio Coding 3
Расширение режима : CM (complete main)
Параметр Endianness формата : Big
Идентификатор кодека : 2000
Продолжительность : 27 м.
Вид битрейта : Постоянный
Битрейт : 192 Кбит/сек
Каналы : 2 канала
Расположение каналов : Front: L R
Частота : 48,0 КГц
Битовая глубина : 16 бит
Метод сжатия : С потерями
Размер потока : 38,1 Мбайт (7%)
Выравнивание : Разделение по промежуткам
Продолжительность промежутка : 42 мс. (1,00 видеокадр)
Время предзагрузки промежутка : 500 мс.



Скачать Байки.из.склепа.Tales.from.the.Crypt.(1х1-6.из.6).(Гилберт.Адлер).[1989.ужасы.триллер.комедия.эротика.DVDRip].[MVO].+.[AVO.(Ю.Немахов)]+[Original.(Eng)].torrent без регистрации
Золото ЗОЛОТАЯ РАЗДАЧА! СКАЧАННОЕ НЕ ЗАСЧИТЫВАЕТСЯ! Золото
Дата: Зарегистрирован   [ Тип: внутренний ] Как тут cкачать?
MAGNET ссылка
MAGNET ссылка


Скачать .torrent

16 KB

Статус: проверено DHT
Скачан: торрент - 186 раз, раздача полностью - 73 раз
Размер: 3,06 GB
Оценка:  - (Голосов: 0)
Поблагодарили: 2
Поделиться ссылкой на эту раздачу с друзьями:
В контактеFacebookОдноклассникиTwitterLivejournalМой МирLiveinternet
 

 
Показать сообщения:    


Вы не можете начинать темы
Вы не можете отвечать на сообщения
Вы не можете редактировать свои сообщения
Вы не можете удалять свои сообщения
Вы не можете голосовать в опросах
Вы не можете прикреплять файлы к сообщениям
Вы можете скачивать файлы