Loading...
Error

Скачать Байки из склепа / Tales from the Crypt (2х1-18 из 18) (Гилберт Адлер \ Gilbert Adler) [1990, ужасы,триллер,комедия,эротика, DVDRip] MVO (НТВ) со вставками AVO (Ю.Немахов) + eng торрент без регистрации

 
Статистика раздачи
Размер:  8,87 GB   |    Скачан:  186 раз

Полного источника не было: 24 минуты

 
Автор Сообщение

МихаНЕзатор

[] 

Байки из склепа / Tales from the crypt

Год выпуска: 1990
Страна: США
Жанр: ужасы, триллер, комедия, эротика
Режиссёр: Гилберт Адлер \ Gilbert Adler
Продолжительность: ~ 30 мин
Перевод 1: Профессиональный многоголосый закадровый (ТВ3) со вставками AVO (Ю.Немахов)
Перевод 2: Авторский одноголосый закадровый (Ю.Немахов) - второй дорожкой
Оригинальная аудиодорожка: есть (eng)
Субтитры: отсутствуют

В ролях: Эндрю МакКарти, Мэриэл Хемингуэй, Дэвид Хэммингс, Майкл Дж. Фокс, Кайл Маклахлан, Терри Гарр, Бруно Кирби, Малколм Макдауэл, Тим Рот, Джон Гловер, Бо Бриджес, Тони Голдуин, Вупи Голдберг, Джон Райс Дейвис, Джеймс Ремар, Ричард Джордан, Джон Полито, Фэй Грант, Энтони Ла Палья, Кирк Дуглас, Эрик Дуглас, Лэнс Хенриксен, Дэн Айкройд и др.

Описание: “Байки из склепа” – телесериал, созданный по мотивам комиксов Уильяма М. Гейнса, составленный из более чем полусотни сюжетов, представляющих собой короткие страшно юморные истории, рассказанные от лица симпатичного обитателя склепа, сопровождаемые его едкими, зловонными комментариями. Познакомьтесь с некоторыми из историй хищно хмыкнув и зловеще улыбнувшись. Помните – смех продлевает жизнь, а постоянный страх сделает вас бессмертным.

Доп. информация: Серии с начальной заставкой.

Благодарности:*Sergeant_am* - создание рипов, прилепление начальной заставки, синхронизация звука.


Качество: DVDRip
Формат: AVI
Видео кодек: DivX
Аудио кодек: AC3
Видео: 640x480 (4:3), 23.976 fps, DivX 5 ~2000 kbps avg, 0.27 bit/pixel
Аудио 1: 48 kHz, AC3 Dolby Digital, 2/0 (L,R) ch, ~192.00 kbps avg (MVO) ТВ3
Аудио 2: 48 kHz, AC3 Dolby Digital, 2/0 (L,R) ch, ~192.00 kbps avg (AVO) Ю.Немахов
Аудио 3: 48 kHz, AC3 Dolby Digital, 2/0 (L,R) ch, ~192.00 kbps avg (eng)

Эгоистичная и жадная до наживы официантка следует совету предсказательницы и выходит замуж за омерзительного толстяка узнав, что вскоре после женитьбы, он унаследует состояние и умрет жуткой смертью.
Когда богат, то чаще всего уже стар. Один богатый старичок влюбился в 20-летнюю красавицу. Но но есть одна проблема - она не любит старичков. Тогда миллионер решается пойти на уникальную экспериментальную операцию...
Когда встречаются два профессиональных шулера (Кевин Тай и Лэнс Хенриксен) и начинают играть, то трудно выйти из состязания победителем. Причем исход игры может быть непредсказуем...
Многообещающий молодой бизнесмен мечтает построить фешенебельный отель на ритуальном местечке. В ход пошли все средства. Но когда идешь к своей цели - ритуалы вуду тебе могут тебе и помешать.
Вечный шекспировский сюжет адюльтера: муж, жена и друг семьи. Муж ослеплен ревностью, психически-неуравновешен и бесплоден. Друг семьи богат и крутится вокруг жены. В голове у мужа зарождается коварный план...
Супермодель и фотограф влюбляются друг в друга. Когда любящий распускать руки парень девушки узнаёт об этом, он решает убить фотографа, но вскоре понимает, что истинную любовь невозможно разрушить.
Страховой агент убивает надоедливого клиента, желая завладеть его деньгами и... его женой. Но кто-то знает о совершённом им преступлении и начинает шантажировать мужчину.
Жуликоватый менеджер устраивает концерт, с деньгами от проведения которого он собирается сбежать. Но хитрая банкирша осложняет его жизнь, начиная шантажировать и требуя часть денег. Тогда мужчина убивает её, не подозревая, что скоро сойдёт с ума.
После долгих издевательств девушка с фермы сходит с ума и влюбляется в пугало. Когда хозяин узнаёт об этом, он переодевается в пугало, желая тем самым, склонить женщину к интимной близости с ним. Но что-то идёт совсем не так, как он планировал...
Молодой кукловод ищет протекции признанного шоумена, но не знает, что тот хранит тёмную тайну своего мастерства.
Старая злая ведьма выдаёт себя за продавца косметики, когда появляется на пороге дома молодой супружеской пары, уговаривая жену померить ожерелье, которое поменяет её телами с ведьмой.
Жестокий владелец похоронного бюро из Алабамы приютил осиротевшего 16-летнего племянника.
Создатель комиксов Байки из склепа узнаёт, что монстры из его историй ожили, покинув книжные страницы и оказавшись в реальном мире.
Хранитель склепа рассказывает историю своего рождения - историю любви циркового уродца и мумии, которой более 4 тысяч лет.
Став свидетельницей убийства, женщина теряет способность говорить - между тем, убийца решает довести дело до конца и никогда не позволить женщине вновь сказать хоть слово.
Желая поднять рейтинги, ведущий ток-шоу и его съёмочная группа отправляются в дом, в котором живёт призрак женщины, убившей семерых мужчин.
Отношения между сиамскими близнецами становятся напряжёнными, когда добрый близнец не соглашается на операцию по отделению от своего злого брата.
12-летний мальчик-сирота находит новый дом в семье богатой бездетной пары, хранящей тёмный секрет. Как бы там ни было, ещё более страшное открытие ждёт их самих.
Общее
Полное имя : G:\Downloads\Байки из склепа\Rutracker.org\2 Сезон\01.Смертельная правота.avi
Формат : AVI
Формат/Информация : Audio Video Interleave
Размер файла : 546 Мбайт
Продолжительность : 29 м.
Общий поток : 2601 Кбит/сек
Программа кодирования : VirtualDubModRus 1.5.10.2 (build 2542/release)
Библиотека кодирования : VirtualDubMod build 2542/release
Видео
Идентификатор : 0
Формат : MPEG-4 Visual
Профиль формата : Advanced Simple@L5
Параметр BVOP формата : 1
Параметр QPel формата : Нет
Параметр GMC формата : Без точки перехода
Параметр матрицы формата : Default (H.263)
Идентификатор кодека : DX50
Идентификатор кодека/Подсказка : DivX 5
Продолжительность : 29 м.
Битрейт : 2006 Кбит/сек
Ширина : 640 пикселей
Высота : 480 пикселей
Соотношение сторон : 4:3
Частота кадров : 23,976 кадра/сек
Цветовое пространство : YUV
Субдискретизация насыщенности : 4:2:0
Битовая глубина : 8 бит
Тип развёртки : Прогрессивная
Метод сжатия : С потерями
Бит/(Пиксели*Кадры) : 0.272
Размер потока : 421 Мбайт (77%)
Библиотека кодирования : XviD 1.2.1 (UTC 2008-12-04)
Аудио #1
Идентификатор : 1
Формат : AC-3
Формат/Информация : Audio Coding 3
Расширение режима : CM (complete main)
Параметр Endianness формата : Big
Идентификатор кодека : 2000
Продолжительность : 29 м.
Вид битрейта : Постоянный
Битрейт : 192 Кбит/сек
Каналы : 2 канала
Расположение каналов : Front: L R
Частота : 48,0 КГц
Битовая глубина : 16 бит
Метод сжатия : С потерями
Размер потока : 40,3 Мбайт (7%)
Выравнивание : Разделение по промежуткам
Продолжительность промежутка : 42 мс. (1,00 видеокадр)
Время предзагрузки промежутка : 500 мс.
Аудио #2
Идентификатор : 2
Формат : AC-3
Формат/Информация : Audio Coding 3
Расширение режима : CM (complete main)
Параметр Endianness формата : Big
Идентификатор кодека : 2000
Продолжительность : 29 м.
Вид битрейта : Постоянный
Битрейт : 192 Кбит/сек
Каналы : 2 канала
Расположение каналов : Front: L R
Частота : 48,0 КГц
Битовая глубина : 16 бит
Метод сжатия : С потерями
Размер потока : 40,3 Мбайт (7%)
Выравнивание : Разделение по промежуткам
Продолжительность промежутка : 42 мс. (1,00 видеокадр)
Время предзагрузки промежутка : 500 мс.
Аудио #3
Идентификатор : 3
Формат : AC-3
Формат/Информация : Audio Coding 3
Профиль формата : Dolby Digital
Расширение режима : CM (complete main)
Параметр Endianness формата : Big
Идентификатор кодека : 2000
Продолжительность : 29 м.
Вид битрейта : Постоянный
Битрейт : 192 Кбит/сек
Каналы : 2 канала
Расположение каналов : Front: L R
Частота : 48,0 КГц
Битовая глубина : 16 бит
Метод сжатия : С потерями
Размер потока : 40,3 Мбайт (7%)
Выравнивание : Разделение по промежуткам
Продолжительность промежутка : 42 мс. (1,00 видеокадр)
Время предзагрузки промежутка : 500 мс.



Скачать Байки.из.склепа.Tales.from.the.Crypt.(2х1-18.из.18).(Гилберт.Адлер.Gilbert.Adler).[1990.ужасы.триллер.комедия.эротика.DVDRip].MVO.(НТВ).со.вставками.AVO.(Ю.Немахов).+.eng.torrent без регистрации
Золото ЗОЛОТАЯ РАЗДАЧА! СКАЧАННОЕ НЕ ЗАСЧИТЫВАЕТСЯ! Золото
Дата: Зарегистрирован   [ Тип: внутренний ] Как тут cкачать?
MAGNET ссылка
MAGNET ссылка


Скачать .torrent

24 KB

Статус: проверено DHT
Скачан: торрент - 186 раз, раздача полностью - 117 раз
Размер: 8,87 GB
Оценка:  - (Голосов: 0)
Поблагодарили: 3
Поделиться ссылкой на эту раздачу с друзьями:
В контактеFacebookОдноклассникиTwitterLivejournalМой МирLiveinternet
 

 
Показать сообщения:    


Вы не можете начинать темы
Вы не можете отвечать на сообщения
Вы не можете редактировать свои сообщения
Вы не можете удалять свои сообщения
Вы не можете голосовать в опросах
Вы не можете прикреплять файлы к сообщениям
Вы можете скачивать файлы