Loading...
Error

Скачать Дикая штучка / Нечто дикое / Something Wild (Джонатан Демми / Jonathan Demme) [1986, Черная комедия, драма, криминал, HDRip] [Dub] ("Варус-Видео") торрент без регистрации

 
Статистика раздачи
Размер:  1,46 GB   |    Скачан:  148 раз
Сидов:  1  [  0 KB/s  ]  
 
Автор Сообщение

leon030982

[] 

Дикая штучка / Нечто дикое / Something Wild


Год выпуска: 1986
Страна: США
Жанр: Черная комедия, драма, криминал
Продолжительность: 01:53:46
Перевод: Профессиональный (дублированный) "Варус-Видео"
Cубтитры: нет
Оригинальная аудиодорожка: английский

Режиссер: Джонатан Демми / Jonathan Demme

В ролях: Джефф Дэниелс, Мелани Гриффит, Рэй Лиотта, Сэнди МакЛеод, Джордж `Красный` Шварц, Лейб Ленски, Трэйси Уолтер, Роберт Риджели, Базз Килман, Кеннет Утт, Эделл Лутц, Чарльз Напьер, Джим Рош, Джон Сэйлз, Эдвард Саксон, Джек Гилпин, Гари Гоэцман, Маргарет Колин, Хезер Шоу, Клои Амато, Д. Стэнтон Миранда, Мэрили К. Смит, Вик Блэр, Джонни Маррс, Джеффри Р. Риу, Анна Левайн-Томпсон, Джоэнна Дэниелс, Драммонд Эрскин

Описание: Преуспевающий вице-президент компании Чарльз Дригз зашел пообедать в кафе и не заплатил по счету. На улице его догнала очаровательная незнакомка и пригрозила полицией. В ходе разговора оказалось, что она не имеет никакого отношения к кафе. Лулу пригласила Чарльза в свою машину и увезла в Пенсильванию. Там она представила его своим мужем и пригласила на вечеринку с бывшими одноклассниками. На вечеринку пришел и ее бывший муж, вернувшийся из заключения. Соперничество между Чарльзом и Реем закончилось дракой. В результате вмешательства полиции Чарльз теряет Лулу из виду, но ищет ее повсюду. И вот, когда он уже отчаялся найти ее, он встречает Лулу в том же самом кафе... Фильм балансирует между комедией и триллером и насыщен точными деталями. Много хипповой музыки и интересных персонажей

Сэмпл: http://multi-up.com/750885
Качество видео: HDRip
Формат видео: AVI
Видео: XviD build 50, 720x400 (1.80:1), 23.976 fps, 1440 kbps avg
Аудио 1: Rus
MPEG Layer 3, 48 kHz, 2/0 (L,R) ch, 192.00 kbps avg
Аудио 2: Eng AC3 Dolby Digital, 48 kHz, 2/0 (L,R) ch, 192.00 kbps avg
General
Complete name : D:\НА РУТРЕКЕР\Dikaia.shtychka.1986.XviD.HDRip.avi
Format : AVI
Format/Info : Audio Video Interleave
File size : 1.46 GiB
Duration : 1h 53mn
Overall bit rate : 1 839 Kbps
Writing application : VirtualDubMod 1.5.10.2 (build 2540/release)
Writing library : VirtualDubMod build 2540/release
Video
ID : 0
Format : MPEG-4 Visual
Format profile : AdvancedSimple@L5
Format settings, BVOP : Yes
Format settings, QPel : No
Format settings, GMC : No warppoints
Format settings, Matrix : Custom
Codec ID : XVID
Codec ID/Hint : XviD
Duration : 1h 53mn
Bit rate : 1 441 Kbps
Width : 720 pixels
Height : 400 pixels
Display aspect ratio : 16/9
Frame rate : 23.976 fps
Resolution : 24 bits
Colorimetry : 4:2:0
Scan type : Progressive
Bits/(Pixel*Frame) : 0.209
Stream size : 1.15 GiB (78%)
Writing library : XviD 1.2.1 (UTC 2008-12-04)
Audio #1
ID : 1
Format : MPEG Audio
Format version : Version 1
Format profile : Layer 3
Codec ID : 55
Codec ID/Hint : MP3
Duration : 1h 53mn
Bit rate mode : Constant
Bit rate : 192 Kbps
Channel(s) : 2 channels
Sampling rate : 48.0 KHz
Resolution : 16 bits
Stream size : 156 MiB (10%)
Alignment : Aligned on interleaves
Interleave, duration : 42 ms (1.00 video frame)
Interleave, preload duration : 504 ms
Writing library : LAME3.98r
Encoding settings : -m j -V 4 -q 5 -lowpass 18.6 -b 192
Audio #2
ID : 2
Format : AC-3
Format/Info : Audio Coding 3
Codec ID : 2000
Duration : 1h 53mn
Bit rate mode : Constant
Bit rate : 192 Kbps
Channel(s) : 2 channels
Channel positions : L R
Sampling rate : 48.0 KHz
Stream size : 156 MiB (10%)
Alignment : Split accross interleaves
Interleave, duration : 42 ms (1.00 video frame)
Interleave, preload duration : 500 ms
Дубляж студии "Варус - Видео" / Роли дублировали: Владимир Герасимов, Анна Каменкова, Александр Новиков, Борис Быстров, Валентина Ананьина, Виктор Петров, Дмитрий Матвеев, Любовь Германова.



Скачать Дикая.штучка.Нечто.дикое.Something.Wild.(Джонатан.Демми.Jonathan.Demme).[1986.Черная.комедия.драма.криминал.HDRip].[Dub].("Варус-Видео").torrent без регистрации
Золото ЗОЛОТАЯ РАЗДАЧА! СКАЧАННОЕ НЕ ЗАСЧИТЫВАЕТСЯ! Золото
Дата: Зарегистрирован   [ Тип: внутренний ] Как тут cкачать?
MAGNET ссылка
MAGNET ссылка


Скачать .torrent

15 KB

Статус: проверено DHT
Скачан: торрент - 148 раз, раздача полностью - 22 раз
Размер: 1,46 GB
Оценка:  - (Голосов: 0)
Поблагодарили: 4
Поделиться ссылкой на эту раздачу с друзьями:
В контактеFacebookОдноклассникиTwitterLivejournalМой МирLiveinternet
 

 
Показать сообщения:    


Вы не можете начинать темы
Вы не можете отвечать на сообщения
Вы не можете редактировать свои сообщения
Вы не можете удалять свои сообщения
Вы не можете голосовать в опросах
Вы не можете прикреплять файлы к сообщениям
Вы можете скачивать файлы