Loading...
Error

Скачать Главная собака / Супер пес / Суперищейка / Top Dog (Аарон Норрис / Aaron Norris) [1995 г., боевик, комедия, криминал, DVDRip] [MVO] (Телеканал ТВ6) торрент без регистрации

 
Статистика раздачи
Размер:  1,37 GB   |    Скачан:  198 раз
Сидов:  1  [  0 KB/s  ]  
 
Автор Сообщение

leon030982

[] 

Главная собака / Супер пес / Суперищейка / Top Dog

Год выпуска: 1995
Страна: США
Жанр: боевик, комедия, криминал
Продолжительность: 01:33:05
Перевод: Профессиональный (многоголосый закадровый) Телеканал ТВ6

Режиссер: Аарон Норрис / Aaron Norris

В ролях: Чак Норрис, Мишель Ламар Ричардс, Эрик Фон Деттен, Кармин Кариди, Клайд Кусацу, Кай Вулфф, Питер Севард Мур, Тимоти Боттомс, Франческо Куинн, Херта Уэр, Джон Терри, Хэнк Бумерт, Линда Кастро, Джон Систранк, Боб Бестенчури, Кент Ризли, Эрик Норрис, Тони Феррандини, Карели Остин, Джек Беннинг

Описание: Джейк Вилдер – самый настоящий одиночка. Этот крутой полицейский привык самостоятельно расправляться с преступниками, а не надеяться на чью-либо помощь. Каково же была удивление копа, когда ему в напарники дали пса по кличке Рено. Сумеют ли сработаться эти двое, каждый из которых привык надеяться только на себя? Не просто сумеют, а еще и по-настоящему подружатся, а так же раскроют и предотвратят целый ряд преступлений, которые могли бы произойти на патрулируемой ими территории.
Рип от

Качество видео: DVDRip
Формат файла: AVI
Видео: 720x384, 23.976 fps, MPEG-4 Visual, 1830 kbps
Аудио 1: 44.1 kHz, MP3, 2 ch, 128 kbps [Russian]
Аудио 2: 44.1 kHz, MP3, 2 ch, 128 kbps [English]
General
Format : AVI
Format/Info : Audio Video Interleave
File size : 1.37 GiB
Duration : 1h 33mn
Overall bit rate : 2 100 Kbps
Writing application : VirtualDubModRus 1.5.10.2 (build 2542/release)
Writing library : VirtualDubMod build 2542/release
Video
ID : 0
Format : MPEG-4 Visual
Format profile : Advanced Simple@L5
Format settings, BVOP : Yes
Format settings, QPel : No
Format settings, GMC : No warppoints
Format settings, Matrix : Default (MPEG)
Codec ID : XVID
Codec ID/Hint : XviD
Duration : 1h 33mn
Bit rate : 1 830 Kbps
Width : 720 pixels
Height : 384 pixels
Display aspect ratio : 1.875
Frame rate : 23.976 fps
Color space : YUV
Chroma subsampling : 4:2:0
Bit depth : 8 bits
Scan type : Progressive
Bits/(Pixel*Frame) : 0.276
Stream size : 1.19 GiB (87%)
Writing library : XviD 1.2.1 (UTC 2008-12-04)
Audio #1
ID : 1
Format : MPEG Audio
Format version : Version 1
Format profile : Layer 3
Mode : Joint stereo
Mode extension : MS Stereo
Codec ID : 55
Codec ID/Hint : MP3
Duration : 1h 33mn
Bit rate mode : Constant
Bit rate : 128 Kbps
Channel(s) : 2 channels
Sampling rate : 44.1 KHz
Stream size : 85.2 MiB (6%)
Alignment : Split accross interleaves
Interleave, duration : 42 ms (1.00 video frame)
Interleave, preload duration : 500 ms
Audio #2
ID : 2
Format : MPEG Audio
Format version : Version 1
Format profile : Layer 3
Mode : Joint stereo
Mode extension : MS Stereo
Codec ID : 55
Codec ID/Hint : MP3
Duration : 1h 33mn
Bit rate mode : Constant
Bit rate : 128 Kbps
Channel(s) : 2 channels
Sampling rate : 44.1 KHz
Stream size : 85.2 MiB (6%)
Alignment : Split accross interleaves
Interleave, duration : 42 ms (1.00 video frame)
Interleave, preload duration : 500 ms



Скачать Главная.собака.Супер.пес.Суперищейка.Top.Dog.(Аарон.Норрис.Aaron.Norris).[1995.г.боевик.комедия.криминал.DVDRip].[MVO].(Телеканал.ТВ6).torrent без регистрации
Золото ЗОЛОТАЯ РАЗДАЧА! СКАЧАННОЕ НЕ ЗАСЧИТЫВАЕТСЯ! Золото
Дата: Зарегистрирован   [ Тип: внутренний ] Как тут cкачать?
MAGNET ссылка
MAGNET ссылка


Скачать .torrent

14 KB

Статус: проверено DHT
Скачан: торрент - 198 раз, раздача полностью - 107 раз
Размер: 1,37 GB
Оценка:  - (Голосов: 0)
Поблагодарили: 0
Поделиться ссылкой на эту раздачу с друзьями:
В контактеFacebookОдноклассникиTwitterLivejournalМой МирLiveinternet
 

 
Показать сообщения:    


Вы не можете начинать темы
Вы не можете отвечать на сообщения
Вы не можете редактировать свои сообщения
Вы не можете удалять свои сообщения
Вы не можете голосовать в опросах
Вы не можете прикреплять файлы к сообщениям
Вы можете скачивать файлы