Loading...
Error

Скачать Байки из склепа / Tales from the Crypt (4 х01-14 из 14) (Гилберт Адлер) [1991, ужасы,триллер,комедия,эротика, DVDRip] [MVO (НТВ) со вставками AVO (Ю.Немахов)]+[eng]+[Subs (eng)] торрент без регистрации

 
Статистика раздачи
Размер:  6,93 GB   |    Скачан:  191 раз
Сидов:  1  [  0 KB/s  ]  
 
Автор Сообщение

МихаНЕзатор

[] 

Байки из склепа / Tales from the crypt


Год выпуска: 1992
Страна: США
Жанр: ужасы, триллер, комедия, эротика
Режиссёр: Гилберт Адлер \ Gilbert Adler
Продолжительность: ~ 30 мин
Перевод 1: Профессиональный многоголосый закадровый (НТВ) со вставками AVO (Ю.Немахов) 1-14 серии.
Перевод 2: Авторский одноголосый закадровый (Ю.Немахов) 1-14 серии (второй дорожкой).
Оригинальная аудиодорожка: есть (eng)
Субтитры: есть (eng) - отдельным файлом

Сэмпл: Скачать

В ролях: Эндрю МакКарти, Мэриэл Хемингуэй, Дэвид Хэммингс, Майкл Дж. Фокс, Кайл Маклахлан, Терри Гарр, Бруно Кирби, Малколм Макдауэл, Тим Рот, Джон Гловер, Бо Бриджес, Тони Голдуин, Вупи Голдберг, Джон Райс Дейвис, Джеймс Ремар, Ричард Джордан, Джон Полито, Фэй Грант, Энтони Ла Палья, Кирк Дуглас, Эрик Дуглас, Лэнс Хенриксен, Дэн Айкройд и др.

Описание: “Байки из склепа” – телесериал, созданный по мотивам комиксов Уильяма М. Гейнса, составленный из более чем полусотни сюжетов, представляющих собой короткие страшно юморные истории, рассказанные от лица симпатичного обитателя склепа, сопровождаемые его едкими, зловонными комментариями. Познакомьтесь с некоторыми из историй хищно хмыкнув и зловеще улыбнувшись. Помните – смех продлевает жизнь, а постоянный страх сделает вас бессмертным.

Благодарности[/align]:hamsterserial - переозвучивание кусочков Ю.Немахова, которые никак не влезали в промежутки дорожки НТВ.
Nerve33 - синхронизация звука от НТВ к 11-ой серии.
*Sergeant_am* - создание рипов, синхронизация звука.


Качество: DVDRip
Формат: AVI
Видео кодек: DivX
Аудио кодек: AC3
Видео: 640x480 (4:3), 23.976 fps, DivX 5 ~2000 kbps avg, 0.27 bit/pixel
Аудио 1: 48 kHz, AC3 Dolby Digital, 2/0 (L,R) ch, ~192.00 kbps avg (MVO) НТВ
Аудио 2: 48 kHz, AC3 Dolby Digital, 2/0 (L,R) ch, ~192.00 kbps avg (AVO) Ю.Немахов
Аудио 3: 48 kHz, AC3 Dolby Digital, 2/0 (L,R) ch, ~192.00 kbps avg (eng)
Интриган и мошенник Говард Принц (Трит Уильямс), зарабатывает на жизнь весьма необычным способом. Он женится на богатых пожилых женщинах, и после инсценировки несчастного случая исчезает с их деньгами.
Самоуверенный ученый (Dylan McDermott) получает инъекцию экспериментальной сыворотки и считает, что был убит и дважды подставлен своими партнерами по лаборатории.
Срывающийся рок-певец (Юл Васкез), который презирает новую жену (Тиа Каррере) партнера по группе (Пол Хипп), по ошибке становится обладателем татуировки на груди, с изображением женщины, которую ненавидит. Изображение, похоже, обладает собственным разумом и не исчезает даже после убийства объекта ненависти.
Два мошенника (Ben Cross and Cathy Moriarty) пытаются обокрасть богатого магната (the late John Vernon), но после его смерти от несчастного случая, стараются обмануть его жену, проводя для нее поддельный спиритический сеанс, что вскоре приводит к неприятным последствиям.
Стареющая модель (Mimi Rogers) прибегает к убийству своих младших соперниц, чтобы дать толчок продвижению своей карьеры и получает свой шанс в качестве кандидатки на весьма странный конкурс красоты.
Ресторанный бизнес молодой пары (the late Christopher Reeve and Bess Armstrong) терпит неудачи, но вдруг получает огромный рост, когда их помощник (Judd Nelson) приготавливает стейк неизвестного происхождения.
Высокомерный детский психолог(David Warner) пытается повысить рейтинги своего провального радио-шоу, делая ряд передач из дома странной женщины (Zelda Rubenstein), желая помочь ей справиться с её крайне встревоженным ребенком.
После убийства техасского рейнджера (David Morse), безжалостный бандит (Neil Giuntoli) получает по заслугам, когда все его прошлые жертвы начинают охотиться за ним.
Офицер полиции (Raymond J. Barry) возобновляет свою прошлую жизнь драг-рейсера, когда молодой и дерзкий гонщик (Brad Pitt) похищает его дочь.
Робкая, застенчивая работница библиотеки (Blythe Danner) становится одержимой серийным убийцей и считает, что она - его следующая жертва.
Мошенник (Джо Пеши) обманным путем добивается свиданий с затворницами сестрами-близнецами (Kristen Amber Citron and Jacqueline Alexandra Citron) для того, чтобы украсть их наследство. Однако, он не догадывается, что с этими женщинами лучше не пересекаться.
Игра обмана начинается, когда кукловоду (Donald O'Connor) "золотого возраста" с его молодой господствующей женой (Patricia Charbonneau) выпадает шанс возродить свое представление для юбилейного шоу и берет себе в помощники аниматронного кукольника (Zach Galligan).
Группа гостей в уединенном отеле подозревают, что один из них может быть оборотнем.
Пожилой мужчина (Kevin McCarthy) становится посвященным в секрет зелья молодости во время похода в лес и поручает своему другу и его жене (J.A. Preston and Madge Sinclair) хранить его подальше от его собственной жестокой и властной жены (Margot Kidder). Но, в итоге, она убивает всех троих, после ошибочных догадок о том, что они планируют её убийство.
Общее
Полное имя : E:\Байки из склепа\4 Сезон\01.Только одинокие сердца.avi
Формат : AVI
Формат/Информация : Audio Video Interleave
Размер файла : 547 Мбайт
Продолжительность : 29 м.
Общий поток : 2595 Кбит/сек
Программа кодирования : VirtualDubModRus 1.5.10.2 (build 2542/release)
Библиотека кодирования : VirtualDubMod build 2542/release
Видео
Идентификатор : 0
Формат : MPEG-4 Visual
Профиль формата : Advanced Simple@L5
Параметр BVOP формата : 1
Параметр QPel формата : Нет
Параметр GMC формата : Без точки перехода
Параметр матрицы формата : Default (H.263)
Идентификатор кодека : DX50
Идентификатор кодека/Подсказка : DivX 5
Продолжительность : 29 м.
Битрейт : 2000 Кбит/сек
Ширина : 640 пикселей
Высота : 480 пикселей
Соотношение сторон : 4:3
Частота кадров : 23,976 кадра/сек
Цветовое пространство : YUV
Субдискретизация насыщенности : 4:2:0
Битовая глубина : 8 бит
Тип развёртки : Прогрессивная
Метод сжатия : С потерями
Бит/(Пиксели*Кадры) : 0.272
Размер потока : 421 Мбайт (77%)
Библиотека кодирования : XviD 1.2.1 (UTC 2008-12-04)
Аудио #1
Идентификатор : 1
Формат : AC-3
Формат/Информация : Audio Coding 3
Расширение режима : CM (complete main)
Идентификатор кодека : 2000
Продолжительность : 29 м.
Вид битрейта : Постоянный
Битрейт : 192 Кбит/сек
Каналы : 2 канала
Расположение каналов : Front: L R
Частота : 48,0 КГц
Битовая глубина : 16 бит
Метод сжатия : С потерями
Размер потока : 40,4 Мбайт (7%)
Выравнивание : Разделение по промежуткам
Продолжительность промежутка : 42 мс. (1,00 видеокадр)
Время предзагрузки промежутка : 500 мс.
Аудио #2
Идентификатор : 2
Формат : AC-3
Формат/Информация : Audio Coding 3
Расширение режима : CM (complete main)
Идентификатор кодека : 2000
Продолжительность : 29 м.
Вид битрейта : Постоянный
Битрейт : 192 Кбит/сек
Каналы : 2 канала
Расположение каналов : Front: L R
Частота : 48,0 КГц
Битовая глубина : 16 бит
Метод сжатия : С потерями
Размер потока : 40,4 Мбайт (7%)
Выравнивание : Разделение по промежуткам
Продолжительность промежутка : 42 мс. (1,00 видеокадр)
Время предзагрузки промежутка : 500 мс.
Аудио #3
Идентификатор : 3
Формат : AC-3
Формат/Информация : Audio Coding 3
Профиль формата : Dolby Digital
Расширение режима : CM (complete main)
Идентификатор кодека : 2000
Продолжительность : 29 м.
Вид битрейта : Постоянный
Битрейт : 192 Кбит/сек
Каналы : 2 канала
Расположение каналов : Front: L R
Частота : 48,0 КГц
Битовая глубина : 16 бит
Метод сжатия : С потерями
Размер потока : 40,4 Мбайт (7%)
Выравнивание : Разделение по промежуткам
Продолжительность промежутка : 42 мс. (1,00 видеокадр)
Время предзагрузки промежутка : 500 мс.



Скачать Байки.из.склепа.Tales.from.the.Crypt.(4.х01-14.из.14).(Гилберт.Адлер).[1991.ужасы.триллер.комедия.эротика.DVDRip].[MVO.(НТВ).со.вставками.AVO.(Ю.Немахов)]+[eng]+[Subs.(eng)].torrent без регистрации
Золото ЗОЛОТАЯ РАЗДАЧА! СКАЧАННОЕ НЕ ЗАСЧИТЫВАЕТСЯ! Золото
Дата: Зарегистрирован   [ Тип: внутренний ] Как тут cкачать?
MAGNET ссылка
MAGNET ссылка


Скачать .torrent

20 KB

Статус: проверено DHT
Скачан: торрент - 191 раз, раздача полностью - 86 раз
Размер: 6,93 GB
Оценка:  - (Голосов: 0)
Поблагодарили: 0
Поделиться ссылкой на эту раздачу с друзьями:
В контактеFacebookОдноклассникиTwitterLivejournalМой МирLiveinternet
 

 
Показать сообщения:    


Вы не можете начинать темы
Вы не можете отвечать на сообщения
Вы не можете редактировать свои сообщения
Вы не можете удалять свои сообщения
Вы не можете голосовать в опросах
Вы не можете прикреплять файлы к сообщениям
Вы можете скачивать файлы