Loading...
Error

Скачать Байки из склепа / Tales from the Crypt (7х01-13 из 13) (Гилберт Адлер) [1996, ужасы, триллер, комедия, эротика, DVDRip] [MVO (ТВ3) со вставками VO (hamsterserial)]+[eng]+[Subs (eng)] торрент без регистрации

 
Статистика раздачи
Размер:  5,69 GB   |    Скачан:  200 раз

Полного источника не было: 29 минут

 
Автор Сообщение

МихаНЕзатор

[] 

Байки из склепа / Tales from the crypt
Год выпуска: 1996
Страна: США
Жанр: ужасы, триллер, комедия, эротика
Режиссёр: Гилберт Адлер \ Gilbert Adler
Продолжительность: ~27 мин
Перевод 1: Профессиональный многоголосый закадровый (ТВ3)
Из них:
со вставками VO (hamsterserial) - с 1-ой по 4-ую, с 7-ой по 12-ую серию.
со вставками DVO - 6-ая серия
Перевод 2: Любительский одноголосый закадровый (hamsterserial) - 5-ая серия.
Перевод 3: Профессиональный двухголосый закадровый - 6-ая серия (второй дорогой), 13-ая серия с окончанием VO (hamsterserial)
Оригинальная аудио-дорожка: есть (eng)
Субтитры: есть (eng) - отдельным файлом



В ролях: Джон Кассир, Рой Броксмит, Мигель Феррер, Ларри Дрэйк, Боб Голдтуэйт, Лэнс Хенриксен, Уильям Сэдлер, Маршалл Р. Тиг, Стив Кэхэн, Трой Эванс и другие

Описание: “Байки из склепа” – телесериал, созданный по мотивам комиксов Уильяма М. Гейнса, составленный из более чем полусотни сюжетов, представляющих собой короткие страшно юморные истории, рассказанные от лица симпатичного обитателя склепа, сопровождаемые его едкими, зловонными комментариями. Познакомьтесь с некоторыми из историй хищно хмыкнув и зловеще улыбнувшись. Помните – смех продлевает жизнь, а постоянный страх сделает вас бессмертным.

Благодарности: Manner_Game - перевод субтитров на недостающие кусочки серий с 1-5, 7-13
hamsterserial - озвучивание недостающиех кусочков серий с 1-5, 7-13
*Sergeant_am* - сведение, создание рипов, синхронизация звука.

Качество: DVDRip
Формат: AVI
Видео кодек: DivX
Аудиокодек: AC3
Видео: 640x480 (4:3), 23.976 fps, DivX 5 ~2000 kbps avg, 0.27 bit/pixel
Аудио 1: 48 kHz, AC3 Dolby Digital, 2/0 (L,R) ch, ~192.00 kbps avg (MVO) ТВ3
Аудио 2: 48 kHz, AC3 Dolby Digital, 2/0 (L,R) ch, ~192.00 kbps avg (DVO,VO)
Аудио 3: 48 kHz, AC3 Dolby Digital, 2/0 (L,R) ch, ~192.00 kbps avg (eng)
Пожилой богач делает оговорку в своем завещании - два его сына должны найти своего давно пропавшего брата либо их доля наследства пойдет на благотворительность.
Трем сестрам кажется ,что они нашли выход из своих проблем ,когда они находят лапу обезьяны ,которая исполняет их желания.
Игра в кошки-мышки начинается между женщиной-романистом и её ревнивым мужем (Кристофер Кейзнов), когда он обвиняет её в измене с сыном их любопытных соседей.
Во время Второй мировой войны, двое нацистов, предатель и человек ,которого он предал, попадают в лагерь для пленных, где им придется работать в команде чтоб сбежать.
Похититель бриллиантов, после того, как его подстрелили, прячется в отеле и встречает там красивую женщину (Элизабет Макговерн), которую видит только он.
Любовники Кэмми и Форд (Юэн Макгрегор) — преступники, но Кэмми решает "завязать". Она приводит человека, который напоминает им, почему они так идеально подходят друг другу.
Обычный молодой человек (Стив Куган) дает приют бездомной беременной женщине (Джулия Савала) и влюбляется в неё ,но когда рождается ребенок в нем просыпается ревность, и он решает избавиться от малыша навсегда.
Молодой человек (Джеймс Фрейн) одержим любой ценой воскресить свою возлюбленную ,которая погибла из-за машины ,им же созданной для собирания мыслей мертвецов.
Молодого человека (Дэниел Крэйг) берут на работу в рекламное агентство, но руководитель агенства и не догадывается, что молодой человек в сговоре с её экс-партнером (Пол Фримен), который жаждит отмщения.
Коррумпированный священник (Энтони Эндрюс) обнаруживает ,что является пропавшим отцом двух девочек-близняшек: красивой ,воспитанной Анжелики и агрессивной, неотёсанной Лии(Anna Friel), впоследствии совсем обезумевшей от мыслей ,что отец вновь бросит её.
Сценарист (Эдди Иззард) обнаруживает ,что он - главный подозреваемый в городе ,где неистовствует серийный убийца ,обезглавливающий женщин.
Играющий на деньги взломщик сейфов (Роберт Линдси) с небольшой потерей слуха запутан в игре между бандитом и его экзотической женой. Он получает слух совы.
В этом сумасшедшем анимированном пересказе старой сказки, «Три поросёнка», большой и плохой Волк (Bobcat Goldthwait) ,устроивший бойню двум поросятам (Brad Garrett и Charlie Adler), и оставивший третьего поросенка (Cam Clarke), осуждён за убийство. Чтобы отомстить, призраки братьев вдохновляют третьего поросёнка на создание чудовища Франкен-свина ,чтоб избавиться от Волка.
Общее
Полное имя : E:\Байки из склепа\7 Сезон\01.Смертельное превращение.avi
Формат : AVI
Формат/Информация : Audio Video Interleave
Размер файла : 489 Мбайт
Продолжительность : 28 м.
Общий поток : 2398 Кбит/сек
Программа кодирования : VirtualDubModRus 1.5.10.2 (build 2542/release)
Библиотека кодирования : VirtualDubMod build 2542/release
Видео
Идентификатор : 0
Формат : MPEG-4 Visual
Профиль формата : Advanced Simple@L5
Параметр BVOP формата : 1
Параметр QPel формата : Нет
Параметр GMC формата : Без точки перехода
Параметр матрицы формата : Default (H.263)
Идентификатор кодека : DX50
Идентификатор кодека/Подсказка : DivX 5
Продолжительность : 28 м.
Битрейт : 2000 Кбит/сек
Ширина : 640 пикселей
Высота : 480 пикселей
Соотношение сторон : 4:3
Частота кадров : 23,976 кадра/сек
Цветовое пространство : YUV
Субдискретизация насыщенности : 4:2:0
Битовая глубина : 8 бит
Тип развёртки : Прогрессивная
Метод сжатия : С потерями
Бит/(Пиксели*Кадры) : 0.272
Размер потока : 407 Мбайт (83%)
Библиотека кодирования : XviD 1.2.1 (UTC 2008-12-04)
Аудио #1
Идентификатор : 1
Формат : AC-3
Формат/Информация : Audio Coding 3
Расширение режима : CM (complete main)
Идентификатор кодека : 2000
Продолжительность : 28 м.
Вид битрейта : Постоянный
Битрейт : 192 Кбит/сек
Каналы : 2 канала
Расположение каналов : Front: L R
Частота : 48,0 КГц
Битовая глубина : 16 бит
Метод сжатия : С потерями
Размер потока : 39,1 Мбайт (8%)
Выравнивание : Разделение по промежуткам
Продолжительность промежутка : 42 мс. (1,00 видеокадр)
Время предзагрузки промежутка : 500 мс.
Аудио #2
Идентификатор : 2
Формат : AC-3
Формат/Информация : Audio Coding 3
Профиль формата : Dolby Digital
Расширение режима : CM (complete main)
Идентификатор кодека : 2000
Продолжительность : 28 м.
Вид битрейта : Постоянный
Битрейт : 192 Кбит/сек
Каналы : 2 канала
Расположение каналов : Front: L R
Частота : 48,0 КГц
Битовая глубина : 16 бит
Метод сжатия : С потерями
Размер потока : 39,1 Мбайт (8%)
Выравнивание : Разделение по промежуткам
Продолжительность промежутка : 42 мс. (1,00 видеокадр)
Время предзагрузки промежутка : 500 мс.



Скачать Байки.из.склепа.Tales.from.the.Crypt.(7х01-13.из.13).(Гилберт.Адлер).[1996.ужасы.триллер.комедия.эротика.DVDRip].[MVO.(ТВ3).со.вставками.VO.(hamsterserial)]+[eng]+[Subs.(eng)].torrent без регистрации
Золото ЗОЛОТАЯ РАЗДАЧА! СКАЧАННОЕ НЕ ЗАСЧИТЫВАЕТСЯ! Золото
Дата: Зарегистрирован   [ Тип: внутренний ] Как тут cкачать?
MAGNET ссылка
MAGNET ссылка


Скачать .torrent

17 KB

Статус: проверено DHT
Скачан: торрент - 200 раз, раздача полностью - 193 раз
Размер: 5,69 GB
Оценка:  5 (Голосов: 2)
Поблагодарили: 4
Поделиться ссылкой на эту раздачу с друзьями:
В контактеFacebookОдноклассникиTwitterLivejournalМой МирLiveinternet
 

 
Показать сообщения:    


Вы не можете начинать темы
Вы не можете отвечать на сообщения
Вы не можете редактировать свои сообщения
Вы не можете удалять свои сообщения
Вы не можете голосовать в опросах
Вы не можете прикреплять файлы к сообщениям
Вы можете скачивать файлы