Loading...
Error

Скачать Лэйк Плэсид: Озеро страха / Lake Placid (Стив Майнер / Steve Miner) [1999, Ужасы, боевик, триллер, комедия, DVDRip] [Dub] ("Мосфильм") торрент без регистрации

 
Статистика раздачи
Размер:  1,36 GB   |    Скачан:  154 раза
Сидов:  1  [  0 KB/s  ]  
 
Автор Сообщение

leon030982

[] 

Лэйк Плэсид: Озеро страха / Lake Placid

Год выпуска: 1999
Страна: США
Жанр: Ужасы, боевик, триллер, комедия
Продолжительность: 01:18:39
Перевод: Профессиональный (дублированный) "Мосфильм"
Cубтитры: нет

Режиссер: Стив Майнер / Steve Miner

В ролях: Билл Пуллман, Бриджит Фонда, Оливер Плэтт, Брендан Глиссон, Бетти Уайт, Дэвид Льюис, Тим Диксон, Натасия Мальте, Маришка Харгитей, Мередит Селенджер, Джед Риис, Ричард Ликок, Джэйк Т. Робертс, Уоррен Текучи, Ти Олссон, Адам Аркин, Стив Майнер

Описание: На темном дне озера Лейк-Плэсид, в предвкушении следующей жертвы, затаилось гигантское чудовище, которому не место ни в этом времени, ни в этом озере. Несчастного, нарушившего невидимую границу, ожидает верная смерть. Фатальная неизбежность леденит кровь и парализует разум, заставляя расстаться с надеждой на спасение. Какую цену придется заплатить, чтобы узнать тайну Озера Страха? В тихом и спокойном местечке Лейк-Плесид на месте происшествия находят единственную улику-огромный зуб, принадлежащий какой-то доисторической твари. Шериф с помощниками, специалист по крокодилам Джек Уэллс и девушка из музея Келли Скотт отправляются к озеру на поиски страшилища. Им оказывается гигантский крокодил. Естественно, наесться рыбками он не может, поэтому не брезгует оленями, медведями и людьми. А вырастила и выкормила его милая старушка, живущая на берегу этого умиротворяющего озера, начав, кстати, со своего собственного мужа…

Доп. информация:
Дорожка от ssr_1981. Работа со звуком alex7691

Сэмпл: http://multi-up.com/751137
Качество видео: DVDRip
Формат видео: AVI
Видео: XviD build 50, 704x528 (1.33:1), 25 fps, 2281 kbps avg
Аудио: MPEG Layer 3, 48 kHz, 2/0 (L,R) ch, 192.00 kbps avg
General
Complete name : D:\Lejk.Plesid.Ozero.straha.1999.XviD.DVDRip-Dego.avi
Format : AVI
Format/Info : Audio Video Interleave
File size : 1.36 GiB
Duration : 1h 18mn
Overall bit rate : 2 483 Kbps
Writing application : VirtualDubMod 1.5.10.2 (build 2540/release)
Writing library : VirtualDubMod build 2540/release
Video
ID : 0
Format : MPEG-4 Visual
Format profile : AdvancedSimple@L5
Format settings, BVOP : Yes
Format settings, QPel : No
Format settings, GMC : No warppoints
Format settings, Matrix : Default (MPEG)
Codec ID : XVID
Codec ID/Hint : XviD
Duration : 1h 18mn
Bit rate : 2 282 Kbps
Width : 704 pixels
Height : 528 pixels
Display aspect ratio : 4/3
Frame rate : 25.000 fps
Resolution : 24 bits
Colorimetry : 4:2:0
Scan type : Progressive
Bits/(Pixel*Frame) : 0.246
Stream size : 1.25 GiB (92%)
Writing library : XviD 1.2.1 (UTC 2008-12-04)
Audio
ID : 1
Format : MPEG Audio
Format version : Version 1
Format profile : Layer 3
Codec ID : 55
Codec ID/Hint : MP3
Duration : 1h 18mn
Bit rate mode : Constant
Bit rate : 192 Kbps
Channel(s) : 2 channels
Sampling rate : 48.0 KHz
Resolution : 16 bits
Stream size : 108 MiB (8%)
Alignment : Aligned on interleaves
Interleave, duration : 40 ms (1.00 video frame)
Interleave, preload duration : 504 ms
Writing library : LAME3.98r
Encoding settings : -m s -V 4 -q 7 -lowpass 18.6 -b 192
Студия "Мосфильм" по заказу "Парадиз"". Роли дублировали: Владимир Еремин, Нина Тобилевич, Алексей Золотницкий, Андрей Мартынов, Дмитрий Филимонов, Марина Тарасова, Ольга Голованова, Александр Новиков



Скачать Лэйк.Плэсид.Озеро.страха.Lake.Placid.(Стив.Майнер.Steve.Miner).[1999.Ужасы.боевик.триллер.комедия.DVDRip].[Dub].("Мосфильм").torrent без регистрации
Золото ЗОЛОТАЯ РАЗДАЧА! СКАЧАННОЕ НЕ ЗАСЧИТЫВАЕТСЯ! Золото
Дата: Зарегистрирован   [ Тип: внутренний ] Как тут cкачать?
MAGNET ссылка
MAGNET ссылка


Скачать .torrent

14 KB

Статус: проверено DHT
Скачан: торрент - 154 раз, раздача полностью - 20 раз
Размер: 1,36 GB
Оценка:  5 (Голосов: 1)
Поблагодарили: 3
Поделиться ссылкой на эту раздачу с друзьями:
В контактеFacebookОдноклассникиTwitterLivejournalМой МирLiveinternet
 

 
Показать сообщения:    


Вы не можете начинать темы
Вы не можете отвечать на сообщения
Вы не можете редактировать свои сообщения
Вы не можете удалять свои сообщения
Вы не можете голосовать в опросах
Вы не можете прикреплять файлы к сообщениям
Вы можете скачивать файлы