Loading...
Error

Скачать Хочешь жить - умей вертеться / Hi-Life (Роджер Хедден / Roger Hedden) [1998, Мелодрама, комедия, DVDRip] [AVO] (Ю. Сербин) + [Original Eng] торрент без регистрации

 
Статистика раздачи
Размер:  1,47 GB   |    Скачан:  117 раз
Сидов:  1  [  0 KB/s  ]  
 
Автор Сообщение

leon030982

[] 

Эксклюзив!!! Первая раздача этого фильма!

Хочешь жить - умей вертеться / Hi-Life


Год выпуска: 1998
Страна: США
Жанр: Мелодрама, комедия
Продолжительность: 01:25:06
Доп. Инфа: После титров рождественская песенка.
Перевод: Авторский (одноголосый закадровый) [Ю. Сербин]
Cубтитры: нет
Оригинальная аудиодорожка: английский

Режиссер: Роджер Хедден / Roger Hedden

В ролях: Кэмпбелл Скотт, Дэрил Ханна, Мойра Келли, Мишель Дернинг, Эрик Столц, Питер Ригерт, Чарльз Дёрнинг, Кэтрин Картлидж, Сандра Сантьяго, Карло Элбан, Дэвид Аарон Бэйкер.

Описание: Какие только головокружительные, обескураживающие и вызывающие сострадание истории не рассказывают друг другу люди, лишь бы только выпутаться из щекотливой ситуации. Но стоит лишь одному неосторожному честному слову сорваться с языка, как настает момент истины.


Качество видео: DVDRip
Формат видео: AVI
Видео: 640x480 (4:3), 23.976 fps, XviD ~2 068 Kbps avg, 0.28 bit/pixel
Аудио: 48 kHz, AC3 Dolby Digital, 2/0 (L,R), ~192.00 kbps avg (Ю. Сербин)
Аудио 2: 48 kHz, AC3 Dolby Digital, 2/0 (L,R), ~192.00 kbps avg (Original)
Звуковая дорожка оцифрована с кассеты
Большое спасибо Fikaloid
General
Format : AVI
Format/Info : Audio Video Interleave
File size : 1.47 GiB
Duration : 1h 25mn
Overall bit rate : 2 466 Kbps
Writing application : VirtualDubMod 1.5.10.2 (build 2540/release)
Writing library : VirtualDubMod build 2540/release
Video
ID : 0
Format : MPEG-4 Visual
Format profile : Advanced Simple@L5
Format settings, BVOP : 2
Format settings, QPel : No
Format settings, GMC : No warppoints
Format settings, Matrix : Default (MPEG)
Codec ID : XVID
Codec ID/Hint : XviD
Duration : 1h 25mn
Bit rate : 2 068 Kbps
Width : 640 pixels
Height : 480 pixels
Display aspect ratio : 4:3
Frame rate : 23.976 fps
Color space : YUV
Chroma subsampling : 4:2:0
Bit depth : 8 bits
Scan type : Progressive
Compression mode : Lossy
Bits/(Pixel*Frame) : 0.281
Stream size : 1.23 GiB (84%)
Writing library : XviD 65
Audio #1
ID : 1
Format : AC-3
Format/Info : Audio Coding 3
Format profile : Dolby Digital
Mode extension : CM (complete main)
Format settings, Endianness : Big
Codec ID : 2000
Duration : 1h 25mn
Bit rate mode : Constant
Bit rate : 192 Kbps
Channel(s) : 2 channels
Channel positions : Front: L R
Sampling rate : 48.0 KHz
Bit depth : 16 bits
Compression mode : Lossy
Stream size : 117 MiB (8%)
Alignment : Split accross interleaves
Interleave, duration : 42 ms (1.00 video frame)
Interleave, preload duration : 500 ms
Audio #2
ID : 2
Format : AC-3
Format/Info : Audio Coding 3
Mode extension : CM (complete main)
Format settings, Endianness : Big
Codec ID : 2000
Duration : 1h 25mn
Bit rate mode : Constant
Bit rate : 192 Kbps
Channel(s) : 2 channels
Channel positions : Front: L R
Sampling rate : 48.0 KHz
Bit depth : 16 bits
Compression mode : Lossy
Stream size : 117 MiB (8%)
Alignment : Split accross interleaves
Interleave, duration : 42 ms (1.00 video frame)
Interleave, preload duration : 500 ms



Скачать Хочешь.жить.-.умей.вертеться.Hi-Life.(Роджер.Хедден.Roger.Hedden).[1998.Мелодрама.комедия.DVDRip].[AVO].(Ю.Сербин).+.[Original.Eng].torrent без регистрации
Золото ЗОЛОТАЯ РАЗДАЧА! СКАЧАННОЕ НЕ ЗАСЧИТЫВАЕТСЯ! Золото
Дата: Зарегистрирован   [ Тип: внутренний ] Как тут cкачать?
MAGNET ссылка
MAGNET ссылка


Скачать .torrent

15 KB

Статус: проверено DHT
Скачан: торрент - 117 раз, раздача полностью - 3 раз
Размер: 1,47 GB
Оценка:  5 (Голосов: 1)
Поблагодарили: 1
Поделиться ссылкой на эту раздачу с друзьями:
В контактеFacebookОдноклассникиTwitterLivejournalМой МирLiveinternet
 

 
Показать сообщения:    


Вы не можете начинать темы
Вы не можете отвечать на сообщения
Вы не можете редактировать свои сообщения
Вы не можете удалять свои сообщения
Вы не можете голосовать в опросах
Вы не можете прикреплять файлы к сообщениям
Вы можете скачивать файлы