Loading...
Error

Скачать Боевые роботы / Robo Warriors (Йен Бэрри / Ian Barry) [1996, Фантастика, DVDRip] [AVO] (Ю.Сербин) торрент без регистрации

 
Статистика раздачи
Размер:  1,38 GB   |    Скачан:  167 раз
Сидов:  1  [  0 KB/s  ]  
 
Автор Сообщение

leon030982

[] 

Боевые роботы / Robo Warriors


Год выпуска: 1996
Страна: США, Premiere Entertainment Productions
Жанр: Фантастика
Продолжительность: 01:29:23
Перевод: Авторский (одноголосый закадровый) (Ю.Сербин)
Cубтитры: нет

Режиссер: Йен Бэрри / Ian Barry

В ролях: Джеймс Римар / James Remar, Кайл Ховард / Kyle Howard, Джеймс Толкан / James Tolkan, Джеймс Лью / James Lew, Бернард Кейтс / Bernard Kates, Джеймс Уит / James With

Описание: В результате опустошительной межпланетной войны практически разрушена Земля и соседние планеты. Могущественные победители, воины — Терадаксы правят на Земле. Только Гибсон — величайший воин-робот способен противостоять инструменту смерти роботов, внушающему ужас Голиафу.

Доп. информация:
Скачан: Blizzardkid, автор (vill)




Качество видео: DVDRip
Формат видео: AVI
Видео: 720x544 (1.32:1), 25 fps, XviD build 50 ~1850 kbps avg, 0.19 bit/pixel
Аудио 1: 48 kHz, MPEG Layer 3, 2 ch, ~128.00 kbps avg (русский)
Аудио 2: 48 kHz, AC3 Dolby Digital, 2/0 (L,R) ch, ~224 kbps (английский)
K:\Rozdacha\Robo.Warriors.avi
General
Complete name : K:\Rozdacha\Robo.Warriors.avi
Format : AVI
Format/Info : Audio Video Interleave
File size : 1.38 GiB
Duration : 1h 29mn
Overall bit rate : 2 217 Kbps
Writing application : VirtualDubMod 1.5.10.2 (build 2540/release)
Writing library : VirtualDubMod build 2540/release
Video #0
ID : 0
Format : MPEG-4 Visual
Format profile : AdvancedSimple@L5
Format settings, BVOP : Yes
Format settings, QPel : No
Format settings, GMC : No warppoints
Format settings, Matrix : Default (MPEG)
Codec ID : XVID
Codec ID/Hint : XviD
Duration : 1h 29mn
Bit rate : 1 851 Kbps
Width : 720 pixels
Height : 544 pixels
Display aspect ratio : 4:3
Frame rate : 25.000 fps
Resolution : 24 bits
Colorimetry : 4:2:0
Scan type : Progressive
Bits/(Pixel*Frame) : 0.189
Stream size : 1.16 GiB (83%)
Writing library : XviD 1.2.1 (UTC 2008-12-04)
Audio #1
ID : 1
Format : MPEG Audio
Format version : Version 1
Format profile : Layer 3
Codec ID : 55
Codec ID/Hint : MP3
Duration : 1h 29mn
Bit rate mode : Constant
Bit rate : 128 Kbps
Channel(s) : 2 channels
Sampling rate : 48.0 KHz
Resolution : 16 bits
Stream size : 81.8 MiB (6%)
Alignment : Aligned on interleaves
Interleave, duration : 40 ms (1.00 video frame)
Interleave, preload duration : 504 ms
Writing library : LAME3.99r
Encoding settings : -m s -V 4 -q 2 -lowpass 17 -b 128
Audio #2
ID : 2
Format : AC-3
Format/Info : Audio Coding 3
Codec ID : 2000
Duration : 1h 29mn
Bit rate mode : Constant
Bit rate : 224 Kbps
Channel(s) : 2 channels
Channel positions : L R
Sampling rate : 48.0 KHz
Stream size : 143 MiB (10%)
Alignment : Split accross interleaves
Interleave, duration : 40 ms (1.00 video frame)
Interleave, preload duration : 500 ms



Скачать Боевые.роботы.Robo.Warriors.(Йен.Бэрри.Ian.Barry).[1996.Фантастика.DVDRip].[AVO].(Ю.Сербин).torrent без регистрации
Золото ЗОЛОТАЯ РАЗДАЧА! СКАЧАННОЕ НЕ ЗАСЧИТЫВАЕТСЯ! Золото
Дата: Зарегистрирован   [ Тип: внутренний ] Как тут cкачать?
MAGNET ссылка
MAGNET ссылка


Скачать .torrent

14 KB

Статус: проверено DHT
Скачан: торрент - 167 раз, раздача полностью - 131 раз
Размер: 1,38 GB
Оценка:  5 (Голосов: 1)
Поблагодарили: 2
Поделиться ссылкой на эту раздачу с друзьями:
В контактеFacebookОдноклассникиTwitterLivejournalМой МирLiveinternet
 

 
Показать сообщения:    


Вы не можете начинать темы
Вы не можете отвечать на сообщения
Вы не можете редактировать свои сообщения
Вы не можете удалять свои сообщения
Вы не можете голосовать в опросах
Вы не можете прикреплять файлы к сообщениям
Вы можете скачивать файлы