Loading...
Error

Скачать Одинокий волк МакКуэйд / Lone Wolf McQuade (Стив Карвер / Steve Carver) [1983, боевик, BDRip-AVC] 4x[MVO] + 6x[AVO] торрент без регистрации

 
Статистика раздачи
Размер:  3,61 GB   |    Скачан:  113 раз
Сидов:  1  [  0 KB/s  ]  
 
Автор Сообщение

leon030982

[] 

Одинокий волк МакКуэйд / Lone Wolf McQuade


Год выпуска: 1983
Страна: США
Жанр: боевик
Продолжительность: 01:47:11
Перевод: Профессиональный (многоголосый закадровый) - НТВ+
Перевод 2-4: Авторский (одноголосый закадровый) - Михалев, Сербин, Володарский
Перевод 5-7: Профессиональный (многоголосый закадровый) - НТВ, 5-й канал, РТР (отдельными файлами)
Перевод 8-10: Авторский (одноголосый закадровый) - Гаврилов, Горчаков, Толбин (отдельными файлами)
Cубтитры: английские
Оригинальная аудиодорожка: английский

Режиссер: Стив Карвер / Steve Carver

В ролях: Чак Норрис /Chuck Norris/, Дэвид Кэррадайн /David Carradine/, Барбара Каррера /Barbara Carrera/, Леон Айзек Кеннеди /Leon Isaac Kennedy/, Роберт Белтран /Robert Beltran/, Л.К.Джонс /L.Q.Jones/, Дэна Киммелл /Dana Kimmell/, Р.Г.Армстронг /R.G.Armstrong/, Хорхе Сервера мл. /Jorge Cervera Jr./, Шэрон Фаррелл /Sharon Farrell

Описание: «Крутого» рейнджера Маккуэйда бандиты ненавидят за беспощадность, а шеф полиции за его стиль работы — «волка-одиночки». И, в конце концов, навязывает ему нового напарника — молодого мексиканца. Им противостоит банда контрабандистов оружием во главе с неким Роули — чемпионом по карате. Бандиты похищают дочь рейнджера…



Сэмпл
Качество видео: BDRip-AVC [Исходник: BD-Remux от HDClub (Спасибо Diablo)]
Формат видео: MKV
Видео: AVC (H.264), 880x480 (16:9), 23.976 fps, 2998 kbps avg, 0.296 bit/pixel
Аудио: Russian: AC3, 48 kHz, 16 bits, 192 kbps, 2.0 ch (MVO, НТВ+)

Аудио 2: Russian: AC3, 48 kHz, 16 bits, 96 kbps, 1 ch (AVO, А.Михалев)
Аудио 3: Russian: AC3, 48 kHz, 16 bits, 96 kbps, 1 ch (AVO, Ю.Сербин)
Аудио 4: Russian: AC3, 48 kHz, 16 bits, 192 kbps, 2.0 ch (AVO, Л.Володарский)
Аудио 5: English: AC3, 48 kHz, 16 bits, 96 kbps, 1 ch (Original)
Аудио 6: Russian: AC3, 48 kHz, 16 bits, 192 kbps, 2.0 ch (MVO, НТВ, отдельным файлом)
Аудио 7: Russian: AC3, 48 kHz, 16 bits, 192 kbps, 2.0 ch (MVO, 5-й канал, отдельным файлом)
Аудио 8: Russian: AC3, 48 kHz, 16 bits, 192 kbps, 2.0 ch (MVO, РТР, отдельным файлом)
Аудио 9: Russian: AC3, 48 kHz, 16 bits, 192 kbps, 2.0 ch (AVO, А.Гаврилов, отдельным файлом)
Аудио 10: Russian: AC3, 48 kHz, 16 bits, 192 kbps, 2.0 ch (AVO, В.Горчаков, отдельным файлом)
Аудио 11: Russian: AC3, 48 kHz, 16 bits, 192 kbps, 2.0 ch (AVO, Ю.Толбин, отдельным файлом)
Формат субтитров: softsub (SRT)
Навигация по главам: есть
Размер основного видеофайла: 2.75 GB[size=11]

За выкуп перевода Юрия Сербина большое спасибо: ochkarik1, tide, Loki1982, Dervish, lawyers и пользователям форума e180 - Kastro, SilverBeast, uchitel538, carnivale, vik19662007, DB73
За многоголосые озвучки спасибо jurasiom, RRbuLLDOzer, KCIOIlIA, Lorenzo94. За Гаврилова zargo
За подготовку Михалева спасибо Прагматик
В дорожке НТВ последние 5 минут заменены с НТВ+
Общее
Уникальный идентификатор : 213934593635237979669448352018149531340 (0xA0F24DD31747352A999446738B55DECC)
Полное имя : E:\Video\Lone.Wolf.McQuade.1983.BDRip-AVC.by.kvvk_2009\Lone.Wolf.McQuade.1983.BDRip-AVC.by.kvvk_2009.mkv
Формат : Matroska
Версия формата : Version 2
Размер файла : 2,75 Гбайт
Продолжительность : 1 ч. 47 м.
Общий поток : 3672 Кбит/сек
Дата кодирования : UTC 2012-08-27 18:03:25
Программа кодирования : mkvmerge v2.9.8 ('C'est le bon') built on Aug 13 2009 12:49:06
Библиотека кодирования : libebml v0.7.7 + libmatroska v0.8.1
Видео
Идентификатор : 1
Формат : AVC
Формат/Информация : Advanced Video Codec
Профиль формата : High@L4.1
Параметр CABAC формата : Да
Параметр ReFrames формата : 8 кадров
Идентификатор кодека : V_MPEG4/ISO/AVC
Продолжительность : 1 ч. 47 м.
Битрейт : 2998 Кбит/сек
Ширина : 880 пикселей
Высота : 480 пикселей
Соотношение сторон : 16:9
Частота кадров : 23,976 кадра/сек
Цветовое пространство : YUV
Субдискретизация насыщенности : 4:2:0
Битовая глубина : 8 бит
Тип развёртки : Прогрессивная
Бит/(Пиксели*Кадры) : 0.296
Размер потока : 2,19 Гбайт (80%)
Библиотека кодирования : x264 core 125 r2200 999b753
Настройки программы : cabac=1 / ref=8 / deblock=1:-1:0 / analyse=0x3:0x113 / me=umh / subme=10 / psy=1 / psy_rd=1.00:0.10 / mixed_ref=1 / me_range=32 / chroma_me=1 / trellis=2 / 8x8dct=1 / cqm=0 / deadzone=21,11 / fast_pskip=0 / chroma_qp_offset=-3 / threads=3 / lookahead_threads=1 / sliced_threads=0 / nr=0 / decimate=0 / interlaced=0 / bluray_compat=0 / constrained_intra=0 / bframes=13 / b_pyramid=2 / b_adapt=2 / b_bias=0 / direct=3 / weightb=1 / open_gop=0 / weightp=2 / keyint=230 / keyint_min=23 / scenecut=40 / intra_refresh=0 / rc=2pass / mbtree=0 / bitrate=2998 / ratetol=1.0 / qcomp=0.60 / qpmin=0 / qpmax=51 / qpstep=4 / cplxblur=20.0 / qblur=0.5 / ip_ratio=1.40 / pb_ratio=1.30 / aq=1:0.90
Язык : English
Default : Нет
Forced : Нет
Аудио #1
Идентификатор : 2
Формат : AC-3
Формат/Информация : Audio Coding 3
Расширение режима : CM (complete main)
Идентификатор кодека : A_AC3
Продолжительность : 1 ч. 47 м.
Вид битрейта : Постоянный
Битрейт : 192 Кбит/сек
Каналы : 2 канала
Расположение каналов : Front: L R
Частота : 48,0 КГц
Битовая глубина : 16 бит
Метод сжатия : С потерями
Размер потока : 147 Мбайт (5%)
Заголовок : AC3 2ch @ 192 kbps |MVO, НТВ+|
Язык : Russian
Default : Да
Forced : Нет
Аудио #2
Идентификатор : 3
Формат : AC-3
Формат/Информация : Audio Coding 3
Расширение режима : CM (complete main)
Идентификатор кодека : A_AC3
Продолжительность : 1 ч. 47 м.
Вид битрейта : Постоянный
Битрейт : 96,0 Кбит/сек
Каналы : 1 канал
Расположение каналов : Front: C
Частота : 48,0 КГц
Битовая глубина : 16 бит
Метод сжатия : С потерями
Размер потока : 73,6 Мбайт (3%)
Заголовок : AC3 1ch @ 96 kbps |AVO, А.Михалев|
Язык : Russian
Default : Нет
Forced : Нет
Аудио #3
Идентификатор : 4
Формат : AC-3
Формат/Информация : Audio Coding 3
Расширение режима : CM (complete main)
Идентификатор кодека : A_AC3
Продолжительность : 1 ч. 47 м.
Вид битрейта : Постоянный
Битрейт : 96,0 Кбит/сек
Каналы : 1 канал
Расположение каналов : Front: C
Частота : 48,0 КГц
Битовая глубина : 16 бит
Метод сжатия : С потерями
Размер потока : 73,6 Мбайт (3%)
Заголовок : AC3 1ch @ 96 kbps |AVO, Ю.Сербин|
Язык : Russian
Default : Нет
Forced : Нет
Аудио #4
Идентификатор : 5
Формат : AC-3
Формат/Информация : Audio Coding 3
Расширение режима : CM (complete main)
Идентификатор кодека : A_AC3
Продолжительность : 1 ч. 47 м.
Вид битрейта : Постоянный
Битрейт : 192 Кбит/сек
Каналы : 2 канала
Расположение каналов : Front: L R
Частота : 48,0 КГц
Битовая глубина : 16 бит
Метод сжатия : С потерями
Размер потока : 147 Мбайт (5%)
Заголовок : AC3 2ch @ 192 kbps |AVO, Л.Володарский|
Язык : Russian
Default : Нет
Forced : Нет
Аудио #5
Идентификатор : 6
Формат : AC-3
Формат/Информация : Audio Coding 3
Расширение режима : CM (complete main)
Идентификатор кодека : A_AC3
Продолжительность : 1 ч. 47 м.
Вид битрейта : Постоянный
Битрейт : 96,0 Кбит/сек
Каналы : 1 канал
Расположение каналов : Front: C
Частота : 48,0 КГц
Битовая глубина : 16 бит
Метод сжатия : С потерями
Размер потока : 73,6 Мбайт (3%)
Заголовок : AC3 1ch @ 96 kbps |Original|
Язык : English
Default : Нет
Forced : Нет
Текст
Идентификатор : 7
Формат : UTF-8
Идентификатор кодека : S_TEXT/UTF8
Идентификатор кодека/Информация : UTF-8 Plain Text
Язык : English
Default : Нет
Forced : Нет
Меню
00:00:00.000 : :00:00:00.000
00:16:54.763 : :00:16:54.763
00:24:58.455 : :00:24:58.455
00:34:36.491 : :00:34:36.491
00:42:47.648 : :00:42:47.648
00:55:15.145 : :00:55:15.145
01:08:32.233 : :01:08:32.233
01:22:11.635 : :01:22:11.635
01:30:42.854 : :01:30:42.854
01:34:54.897 : :01:34:54.897
01:44:28.345 : :01:44:28.345
Общее
Полное имя : E:\Video\Lone.Wolf.McQuade.1983.BDRip-AVC.by.kvvk_2009\Lone.Wolf.McQuade.1983.BDRip-AVC.by.kvvk_2009.NTV.ac3
Формат : AC-3
Формат/Информация : Audio Coding 3
Размер файла : 147 Мбайт
Продолжительность : 1 ч. 47 м.
Режим общего битрейта : Постоянный
Общий поток : 192 Кбит/сек
Аудио
Формат : AC-3
Формат/Информация : Audio Coding 3
Расширение режима : CM (complete main)
Продолжительность : 1 ч. 47 м.
Вид битрейта : Постоянный
Битрейт : 192 Кбит/сек
Каналы : 2 канала
Расположение каналов : Front: L R
Частота : 48,0 КГц
Битовая глубина : 16 бит
Метод сжатия : С потерями
Размер потока : 147 Мбайт (100%)
Общее
Полное имя : E:\Video\Lone.Wolf.McQuade.1983.BDRip-AVC.by.kvvk_2009\Lone.Wolf.McQuade.1983.BDRip-AVC.by.kvvk_2009.5-channel.ac3
Формат : AC-3
Формат/Информация : Audio Coding 3
Размер файла : 147 Мбайт
Продолжительность : 1 ч. 47 м.
Режим общего битрейта : Постоянный
Общий поток : 192 Кбит/сек
Аудио
Формат : AC-3
Формат/Информация : Audio Coding 3
Расширение режима : CM (complete main)
Продолжительность : 1 ч. 47 м.
Вид битрейта : Постоянный
Битрейт : 192 Кбит/сек
Каналы : 2 канала
Расположение каналов : Front: L R
Частота : 48,0 КГц
Битовая глубина : 16 бит
Метод сжатия : С потерями
Размер потока : 147 Мбайт (100%)
Общее
Полное имя : E:\Video\Lone.Wolf.McQuade.1983.BDRip-AVC.by.kvvk_2009\Lone.Wolf.McQuade.1983.BDRip-AVC.by.kvvk_2009.RTR.ac3
Формат : AC-3
Формат/Информация : Audio Coding 3
Размер файла : 147 Мбайт
Продолжительность : 1 ч. 47 м.
Режим общего битрейта : Постоянный
Общий поток : 192 Кбит/сек
Аудио
Формат : AC-3
Формат/Информация : Audio Coding 3
Расширение режима : CM (complete main)
Продолжительность : 1 ч. 47 м.
Вид битрейта : Постоянный
Битрейт : 192 Кбит/сек
Каналы : 2 канала
Расположение каналов : Front: L R
Частота : 48,0 КГц
Битовая глубина : 16 бит
Метод сжатия : С потерями
Размер потока : 147 Мбайт (100%)
Общее
Полное имя : E:\Video\Lone.Wolf.McQuade.1983.BDRip-AVC.by.kvvk_2009\Lone.Wolf.McQuade.1983.BDRip-AVC.by.kvvk_2009.Gavrilov.ac3
Формат : AC-3
Формат/Информация : Audio Coding 3
Размер файла : 147 Мбайт
Продолжительность : 1 ч. 47 м.
Режим общего битрейта : Постоянный
Общий поток : 192 Кбит/сек
Аудио
Формат : AC-3
Формат/Информация : Audio Coding 3
Расширение режима : CM (complete main)
Продолжительность : 1 ч. 47 м.
Вид битрейта : Постоянный
Битрейт : 192 Кбит/сек
Каналы : 2 канала
Расположение каналов : Front: L R
Частота : 48,0 КГц
Битовая глубина : 16 бит
Метод сжатия : С потерями
Размер потока : 147 Мбайт (100%)
Общее
Полное имя : E:\Video\Lone.Wolf.McQuade.1983.BDRip-AVC.by.kvvk_2009\Lone.Wolf.McQuade.1983.BDRip-AVC.by.kvvk_2009.Gorchakov.ac3
Формат : AC-3
Формат/Информация : Audio Coding 3
Размер файла : 147 Мбайт
Продолжительность : 1 ч. 47 м.
Режим общего битрейта : Постоянный
Общий поток : 192 Кбит/сек
Аудио
Формат : AC-3
Формат/Информация : Audio Coding 3
Расширение режима : CM (complete main)
Продолжительность : 1 ч. 47 м.
Вид битрейта : Постоянный
Битрейт : 192 Кбит/сек
Каналы : 2 канала
Расположение каналов : Front: L R
Частота : 48,0 КГц
Битовая глубина : 16 бит
Метод сжатия : С потерями
Размер потока : 147 Мбайт (100%)
Общее
Полное имя : E:\Video\Lone.Wolf.McQuade.1983.BDRip-AVC.by.kvvk_2009\Lone.Wolf.McQuade.1983.BDRip-AVC.by.kvvk_2009.Tolbin.ac3
Формат : AC-3
Формат/Информация : Audio Coding 3
Размер файла : 147 Мбайт
Продолжительность : 1 ч. 47 м.
Режим общего битрейта : Постоянный
Общий поток : 192 Кбит/сек
Аудио
Формат : AC-3
Формат/Информация : Audio Coding 3
Расширение режима : CM (complete main)
Продолжительность : 1 ч. 47 м.
Вид битрейта : Постоянный
Битрейт : 192 Кбит/сек
Каналы : 2 канала
Расположение каналов : Front: L R
Частота : 48,0 КГц
Битовая глубина : 16 бит
Метод сжатия : С потерями
Размер потока : 147 Мбайт (100%)



Скачать Одинокий.волк.МакКуэйд.Lone.Wolf.McQuade.(Стив.Карвер.Steve.Carver).[1983.боевик.BDRip-AVC].4x[MVO].+.6x[AVO].torrent без регистрации
Золото ЗОЛОТАЯ РАЗДАЧА! СКАЧАННОЕ НЕ ЗАСЧИТЫВАЕТСЯ! Золото
Дата: Зарегистрирован   [ Тип: внутренний ] Как тут cкачать?
MAGNET ссылка
MAGNET ссылка


Скачать .torrent

19 KB

Статус: проверено DHT
Скачан: торрент - 113 раз, раздача полностью - 24 раз
Размер: 3,61 GB
Оценка:  - (Голосов: 0)
Поблагодарили: 0
Поделиться ссылкой на эту раздачу с друзьями:
В контактеFacebookОдноклассникиTwitterLivejournalМой МирLiveinternet
 

 
Показать сообщения:    


Вы не можете начинать темы
Вы не можете отвечать на сообщения
Вы не можете редактировать свои сообщения
Вы не можете удалять свои сообщения
Вы не можете голосовать в опросах
Вы не можете прикреплять файлы к сообщениям
Вы можете скачивать файлы