Loading...
Error

Скачать Класс 1999 года / Class of 1999 (Марк Л. Лестер / Mark L. Lester) [1990, ужасы, фантастика, боевик, драма, DVDRip] [DVO] + [AVO] (Санаев) торрент без регистрации

 
Статистика раздачи
Размер:  1,47 GB   |    Скачан:  171 раз
Сидов:  1  [  0 KB/s  ]  
 
Автор Сообщение

leon030982

[] 

Класс 1999 года / Class of 1999


Год выпуска: 1990
Страна: США
Жанр: ужасы, фантастика, боевик, драма
Продолжительность: 01:32:20
Перевод 1: Профессиональный (двухголосый закадровый)
Перевод 2: Авторский (одноголосый закадровый) Павел Санаев
Cубтитры: русские Отдельно
Оригинальная аудиодорожка: английский
Режиссер: Марк Л. Лестер / Mark L. Lester
В ролях: Брэдли Грегг, Трейси Линд, Малкольм МакДауэлл, Стейси Кич, Пэтрик Килпэтрик, Пэм Гриер, Джон П. Райан, Даррен Э. Берроуз, Джошуа Джон Миллер, Шарон Виатт
Описание: Время действия — 1999 год. В школах и вузах США — полный беспредел, творимый молодежными бандами. Департамент Обороны Образования, отчаявшись навести дисциплину в Высшей школе Кеннеди решает воспользоваться услугами фирмы «Мегатек», работавшей на оборону и продолжающей вести разработку различных моделей роботов, в том числе учителей-киборгов.Три электронных учителя, прибывшие в школу, моментально звереют от общения со своими студентами и начинают безжалостное смертельное сражение «за успеваемость и посещаемость». На этот раз юные бандиты находят себе равных противников!

Качество видео: DVDRip
Формат видео: AVI
Видео: 704x512 (1.38:1), 25 fps, XviD build 65 ~1787 kbps avg, 0.20 bit/pixel
Аудио 1: 48 kHz, MPEG Layer 3, 2 ch, ~128.00 kbps avg Двухголоска
Аудио 2: 44.100 kHz, MPEG Layer 3, 2 ch, ~112.00 kbps avg Санаев
Аудио 3: 48 kHz, AC3 Dolby Digital, 2/0 (L,R) ch, ~224 kbps Оригинал
Формат субтитров: softsub (SRT)
за ДВД спасибо Genzinlee
за двухголоску спасибо Vikachka
за Санаева, Оригинал и Русские субтитры спасибо Юрист
General
Complete name : D:\Релизы\Class of 1999.1990.DUALRUS.ENG.DVDRip.XviD.MPEG Audio.AC3\Class of 1999.1990.DUALRUS.ENG.DVDRip.XviD.MPEG Audio.AC3.avi
Format : AVI
Format/Info : Audio Video Interleave
File size : 1.47 GiB
Duration : 1h 32mn
Overall bit rate : 2 272 Kbps
Writing application : VirtualDubMod 1.5.10.2 (build 2540/release)
Writing library : VirtualDubMod build 2540/release
Video
ID : 0
Format : MPEG-4 Visual
Format profile : Advanced Simple@L5
Format settings, BVOP : 1
Format settings, QPel : No
Format settings, GMC : No warppoints
Format settings, Matrix : Custom
Codec ID : XVID
Codec ID/Hint : XviD
Duration : 1h 32mn
Bit rate : 1 789 Kbps
Width : 704 pixels
Height : 512 pixels
Display aspect ratio : 1.375
Frame rate : 25.000 fps
Color space : YUV
Chroma subsampling : 4:2:0
Bit depth : 8 bits
Scan type : Progressive
Compression mode : Lossy
Bits/(Pixel*Frame) : 0.199
Stream size : 1.15 GiB (79%)
Writing library : XviD 65
Audio #1
ID : 1
Format : MPEG Audio
Format version : Version 1
Format profile : Layer 3
Mode : Joint stereo
Mode extension : MS Stereo
Codec ID : 55
Codec ID/Hint : MP3
Duration : 1h 32mn
Bit rate mode : Constant
Bit rate : 128 Kbps
Channel(s) : 2 channels
Sampling rate : 48.0 KHz
Compression mode : Lossy
Stream size : 84.5 MiB (6%)
Alignment : Aligned on interleaves
Interleave, duration : 40 ms (1.00 video frame)
Interleave, preload duration : 504 ms
Audio #2
ID : 2
Format : MPEG Audio
Format version : Version 1
Format profile : Layer 3
Mode : Joint stereo
Mode extension : MS Stereo
Codec ID : 55
Codec ID/Hint : MP3
Duration : 1h 32mn
Bit rate mode : Constant
Bit rate : 112 Kbps
Channel(s) : 2 channels
Sampling rate : 44.1 KHz
Compression mode : Lossy
Stream size : 74.0 MiB (5%)
Alignment : Split accross interleaves
Interleave, duration : 40 ms (1.00 video frame)
Interleave, preload duration : 500 ms
Writing library : LAME3.99r
Encoding settings : -m j -V 4 -q 0 -lowpass 15.6 -b 112
Audio #3
ID : 3
Format : AC-3
Format/Info : Audio Coding 3
Format profile : Dolby Digital
Mode extension : CM (complete main)
Format settings, Endianness : Big
Codec ID : 2000
Duration : 1h 32mn
Bit rate mode : Constant
Bit rate : 224 Kbps
Channel(s) : 2 channels
Channel positions : Front: L R
Sampling rate : 48.0 KHz
Bit depth : 16 bits
Compression mode : Lossy
Stream size : 148 MiB (10%)
Alignment : Split accross interleaves
Interleave, duration : 40 ms (1.00 video frame)
Interleave, preload duration : 500 ms



Скачать Класс.1999.года.Class.of.1999.(Марк.Л.Лестер.Mark.L.Lester).[1990.ужасы.фантастика.боевик.драма.DVDRip].[DVO].+.[AVO].(Санаев).torrent без регистрации
Золото ЗОЛОТАЯ РАЗДАЧА! СКАЧАННОЕ НЕ ЗАСЧИТЫВАЕТСЯ! Золото
Дата: Зарегистрирован   [ Тип: внутренний ] Как тут cкачать?
MAGNET ссылка
MAGNET ссылка


Скачать .torrent

15 KB

Статус: проверено DHT
Скачан: торрент - 171 раз, раздача полностью - 634 раз
Размер: 1,47 GB
Оценка:  - (Голосов: 0)
Поблагодарили: 5
Поделиться ссылкой на эту раздачу с друзьями:
В контактеFacebookОдноклассникиTwitterLivejournalМой МирLiveinternet
 

 
Показать сообщения:    


Вы не можете начинать темы
Вы не можете отвечать на сообщения
Вы не можете редактировать свои сообщения
Вы не можете удалять свои сообщения
Вы не можете голосовать в опросах
Вы не можете прикреплять файлы к сообщениям
Вы можете скачивать файлы