Loading...
Error

Скачать Огни святого Эльма / Огонек святого Эльма / St. Elmo's fire (Джоэл Шумахер / Joel Schumacher) [1985, Драма, BDRip] [DUB] ("Варус-Видео") торрент без регистрации

 
Статистика раздачи
Размер:  1,37 GB   |    Скачан:  112 раз

Полного источника не было: 25 минут

 
Автор Сообщение

leon030982

[] 

Огни святого Эльма / Огонек святого Эльма / St. Elmo's fire


Год выпуска: 1985
Страна: США
Жанр: Драма
Продолжительность: 01:43:37
Перевод: Профессиональный (дублированный) "Варус-Видео"
Cубтитры: нет
Оригинальная аудиодорожка: английский

Режиссер: Джоэл Шумахер / Joel Schumacher

В ролях: Эмилио Эстевес, Роб Лоу, Деми Мур, Эндрю МакКарти, Энди МакДауэлл, Джадд Нельсон, Элли Шиди, Мэр Уиннингэм, Мартин Балсам, Джойс Ван Паттен, Дженни Райт, Блейк Кларк, Джон Катлер, Мэттью Лоранс, Джина Хехт, Анна Мария Хорсфорд, Джеймс Керрингтон, Дон Мосс, Уип Хабли, Джим Тернер, Марио Мачадо, Джуди Кейн, Сет Джаффе, Джеффри Ламперт, Элизабет Арлен, Нора Мирбаум, Скотт Неме, Бернадетт Биркетт, Винсент Дж. Айзек, Дин Р. Миллер, Синди Дитрих, Дэвид Лэйн Бэйкер, Дэниэл Иден, Лорел Пейдж, Дж.Т. Соломон

Описание: В кафешке. которое называется «Огни святого Эльма». собираются главные герои этого очень ностальгического фильма. Здесь собираются люди, которые учились вместе и сильно сдружились между собой. Их отношения, после того как они окончили учебу, стали сильно переплетены и тесно связаны между собой. Они шагнули в большой мир и с ностальгическим настроением вспоминают свои прекрасные молодые и очень веселые школьные годы, и ту дружбу, которая не прерывается по сей день между ними. Их отношения настолько переплетены что они не представляют жизнь друг без друга, и невозможно им представить жизнь без каждого из них... Милое, доброе, неглупое кино.

Релиз Lem.
Оцифровку звука Fikaloid
. Работа со звуком alex7691
Сэмпл: http://multi-up.com/748032
Качество видео: BDRip
Формат видео: AVI
Видео: XviD build 64, 720x304 (2.37:1), 25 fps, 1495 kbps avg
Аудио: Rus AC3 Dolby Digital, 48 kHz, 2/0 (L,R) ch, 192.00 kbps avg
Аудио 2: Eng AC3 Dolby Digital, 48 kHz, 2/0 (L,R) ch, 192.00 kbps avg
General
Complete name : D:\НА РУТРЕКЕР\Ogni.Svjatogo.Elma.1985.XviD.BDRip.Lem.avi
Format : AVI
Format/Info : Audio Video Interleave
File size : 1.37 GiB
Duration : 1h 43mn
Overall bit rate : 1 894 Kbps
Writing application : VirtualDubModRus 1.5.10.2 (build 2542/release)
Writing library : VirtualDubMod build 2542/release
Video
ID : 0
Format : MPEG-4 Visual
Format profile : AdvancedSimple@L5
Format settings, BVOP : Yes
Format settings, QPel : No
Format settings, GMC : No warppoints
Format settings, Matrix : Default (MPEG)
Codec ID : XVID
Codec ID/Hint : XviD
Duration : 1h 43mn
Bit rate : 1 496 Kbps
Width : 720 pixels
Height : 304 pixels
Display aspect ratio : 2.35
Frame rate : 25.000 fps
Resolution : 24 bits
Colorimetry : 4:2:0
Scan type : Progressive
Bits/(Pixel*Frame) : 0.273
Stream size : 1.08 GiB (79%)
Writing library : XviD 64
Audio #1
ID : 1
Format : AC-3
Format/Info : Audio Coding 3
Codec ID : 2000
Duration : 1h 43mn
Bit rate mode : Constant
Bit rate : 192 Kbps
Channel(s) : 2 channels
Channel positions : L R
Sampling rate : 48.0 KHz
Stream size : 142 MiB (10%)
Alignment : Split accross interleaves
Interleave, duration : 40 ms (1.00 video frame)
Interleave, preload duration : 500 ms
Audio #2
ID : 2
Format : AC-3
Format/Info : Audio Coding 3
Codec ID : 2000
Duration : 1h 43mn
Bit rate mode : Constant
Bit rate : 192 Kbps
Channel(s) : 2 channels
Channel positions : L R
Sampling rate : 48.0 KHz
Video delay : 12ms
Stream size : 142 MiB (10%)
Alignment : Split accross interleaves
Interleave, duration : 40 ms (1.00 video frame)
Interleave, preload duration : 500 ms
Дубляж студии "Варус - Видео" / Роли дублировали: Александр Рыжков, Владимир Конкин, Владислав Ковальков, Елена Астафьева, Елена Борзунова, Ирина Савина, Марина Дюжева, Наталья Казначеева, Никита Прозоровский, Ольга Плетнёва, Сергей Балабанов, Сергей Чекан, Юрий Маляров.




Скачать Огни.святого.Эльма.Огонек.святого.Эльма.St.Elmo's.fire.(Джоэл.Шумахер.Joel.Schumacher).[1985.Драма.BDRip].[DUB].("Варус-Видео").torrent без регистрации
Золото ЗОЛОТАЯ РАЗДАЧА! СКАЧАННОЕ НЕ ЗАСЧИТЫВАЕТСЯ! Золото
Дата: Зарегистрирован   [ Тип: внутренний ] Как тут cкачать?
MAGNET ссылка
MAGNET ссылка


Скачать .torrent

14 KB

Статус: проверено DHT
Скачан: торрент - 112 раз, раздача полностью - 15 раз
Размер: 1,37 GB
Оценка:  - (Голосов: 0)
Поблагодарили: 0
Поделиться ссылкой на эту раздачу с друзьями:
В контактеFacebookОдноклассникиTwitterLivejournalМой МирLiveinternet
 

 
Показать сообщения:    


Вы не можете начинать темы
Вы не можете отвечать на сообщения
Вы не можете редактировать свои сообщения
Вы не можете удалять свои сообщения
Вы не можете голосовать в опросах
Вы не можете прикреплять файлы к сообщениям
Вы можете скачивать файлы