Loading...
Error

Скачать Самолетом, поездом, машиной / Planes, Trains & Automobiles (Джон Хьюз) [1987, комедия, HDTVRip] [AVO] торрент без регистрации

 
Статистика раздачи
Размер:  745 MB   |    Скачан:  112 раз
Сидов:  1  [  0 KB/s  ]  
 
Автор Сообщение

Marsianka

[] 

Информация о фильме
Название: Самолетом, поездом, машиной
Оригинальное название: Planes, Trains & Automobiles
Страна: США
Жанр: комедия
Продолжительность: 01:32:27
Год выпуска: 1987
Перевод: Авторский (одноголосый, закадровый) (Михалёв)
Cубтитры: нет

Режиссёр: Джон Хьюз / John Hughes
В ролях: Стив Мартин, Джон Кэнди, Лэйла Робинс, Майкл МакКин, Кевин Бэйкон, Дилан Бэйкер

Описание: Всё, что было нужно преуспевающему "рекламщику" Нилу Пэйджу, так это успеть домой ко Дню Благодарения. Ведь это так просто: купить билет на самолет, совершить комфортабельный полет до родного Чикаго и уже вечером сесть за праздничный стол со всей своей семьей. Но случилось так, что это оказалось чудовищно трудной задачей. Путь домой станет для Нила самым невероятным приключением всей его жизни!



Сэмпл

Качество: HDTVRip
Формат: AVI
Видео: 656x368 (1.78:1), 23.976 fps, XviD build 50 ~988 kbps avg, 0.17 bit/pixel
Аудио: 48 kHz, MPEG Layer 3, 2 ch, ~128.00 kbps avg


General
Complete name : D:REALISE Y.T.NSamoletom.Poezdom.Mashinoi..1987.HDTVRip. by Y.T.N.avi
Format : AVI
Format/Info : Audio Video Interleave
File size : 745 MiB
Duration : 1h 32mn
Overall bit rate : 1 126 Kbps
Writing library : VirtualDubMod build 2540/release

Video
ID : 0
Format : MPEG-4 Visual
Format profile : Advanced Simple@L5
Format settings, BVOP : 1
Format settings, QPel : No
Format settings, GMC : No warppoints
Format settings, Matrix : Custom
Codec ID : XVID
Codec ID/Hint : XviD
Duration : 1h 32mn
Bit rate : 989 Kbps
Width : 656 pixels
Height : 368 pixels
Display aspect ratio : 16:9
Frame rate : 23.976 fps
Color space : YUV
Chroma subsampling : 4:2:0
Bit depth : 8 bits
Scan type : Progressive
Compression mode : Lossy
Bits/(Pixel*Frame) : 0.171
Stream size : 654 MiB (88%)
Writing library : XviD 1.2.1 (UTC 2008-12-04)

Audio
ID : 1
Format : MPEG Audio
Format version : Version 1
Format profile : Layer 3
Codec ID : 55
Codec ID/Hint : MP3
Duration : 1h 32mn
Bit rate mode : Constant
Bit rate : 128 Kbps
Channel(s) : 2 channels
Sampling rate : 48.0 KHz
Compression mode : Lossy
Stream size : 84.6 MiB (11%)
Alignment : Aligned on interleaves
Interleave, duration : 42 ms (1.00 video frame)
Interleave, preload duration : 504 ms
Writing library : LAME3.98r
Encoding settings : -m s -V 4 -q 2 -lowpass 17 -b 128



Скачать Самолетом.поездом.машиной.Planes.Trains.&.Automobiles.(Джон.Хьюз).[1987.комедия.HDTVRip].[AVO].torrent без регистрации
Золото ЗОЛОТАЯ РАЗДАЧА! СКАЧАННОЕ НЕ ЗАСЧИТЫВАЕТСЯ! Золото
Дата: Зарегистрирован   [ Тип: внутренний ] Как тут cкачать?
MAGNET ссылка
MAGNET ссылка


Скачать .torrent

15 KB

Статус: проверено DHT
Скачан: торрент - 112 раз, раздача полностью - 6 раз
Размер: 745 MB
Оценка:  5 (Голосов: 1)
Поблагодарили: 2
Поделиться ссылкой на эту раздачу с друзьями:
В контактеFacebookОдноклассникиTwitterLivejournalМой МирLiveinternet
 

 
Показать сообщения:    


Вы не можете начинать темы
Вы не можете отвечать на сообщения
Вы не можете редактировать свои сообщения
Вы не можете удалять свои сообщения
Вы не можете голосовать в опросах
Вы не можете прикреплять файлы к сообщениям
Вы можете скачивать файлы