Loading...
Error

Скачать Прикоснуться к надежде / A Touch of Hope (Крэйг Р. Бэксли) [1999, драма, SATRip] [DVO] торрент без регистрации

 
Статистика раздачи
Размер:  1,29 GB   |    Скачан:  107 раз
Сидов:  1  [  0 KB/s  ]  
 
Автор Сообщение

Marsianka

[] 

Название: Прикоснуться к надежде
Оригинальное название: A Touch of Hope
Год выпуска: 1999
Жанр: драма
Выпущено: США, NBC Studios, Patchett Kaufman Entertainment
Режиссер: Крэйг Р. Бэксли
В ролях: Энтони Майкл Холл, Абрахам Бенруби, Си Си Эйч Паундер, Фэй Мастерсон, Шон ОБрайан, Роберт Клохесси, Питер МакНейл, Нэнси Битти, Алан Розенберг, Брук Джонсон, Стефани Миллс, Мэрион Дэй, Стефани Мур, Александра Стэпли, Ричард Фицпатрик, Линн Гриффин, Тим Прогош, Эндрю Краулис, Расселл Юэнь, Холли Седжвик, Шэнли Тринидад, Стив Уэбб

О фильме: Рассказ о Дине Крафте, который лечил наложением рук. Он открыл у себя этот талант еще в детстве, но пользовался им только в крайних случаях, так как официальная медицина не признавала такой метод лечения.



Качество: SATRip
Видео: DivX, 1995 Кбит/с, 704x544
Аудио: AC3, 2 ch, 192 Кбит/с
Размер: 1.29 ГБ
Продолжительность: 01:24:19
Перевод: Профессиональный двухголосый

Общее
Полное имя : Prikosnutsya.k.nadezhde.1999.DivX.SATRip.RG.MixTorrent.avi
Формат : AVI
Формат/Информация : Audio Video Interleave
Размер файла : 1,29 Гбайт
Продолжительность : 1 ч. 24 м.
Общий поток : 2196 Кбит/сек
Программа кодирования : VirtualDubMod 1.5.10.3 | www.virtualdub-fr.org || (build 2550/release)
Библиотека кодирования : VirtualDubMod build 2550/release

Видео
Идентификатор : 0
Формат : MPEG-4 Visual
Профиль формата : Advanced Simple@L5
Параметр BVOP формата : 1
Параметр QPel формата : Нет
Параметр GMC формата : Без точки перехода
Параметр матрицы формата : Default (H.263)
Идентификатор кодека : DIVX
Идентификатор кодека/Информация : Project Mayo
Идентификатор кодека/Подсказка : DivX 4
Продолжительность : 1 ч. 24 м.
Битрейт : 1995 Кбит/сек
Ширина : 704 пикселя
Высота : 544 пикселя
Соотношение сторон : 1,294
Частота кадров : 25,000 кадров/сек
Цветовое пространство : YUV
Субдискретизация насыщенности : 4:2:0
Битовая глубина : 8 бит
Тип развёртки : Прогрессивная
Метод сжатия : С потерями
Бит/(Пиксели*Кадры) : 0.208
Размер потока : 1,17 Гбайт (91%)
Библиотека кодирования : XviD 1.2.1 (UTC 2008-12-04)

Аудио
Идентификатор : 1
Формат : AC-3
Формат/Информация : Audio Coding 3
Расширение режима : CM (complete main)
Параметр Endianness формата : Big
Идентификатор кодека : 2000
Продолжительность : 1 ч. 24 м.
Вид битрейта : Постоянный
Битрейт : 192 Кбит/сек
Каналы : 2 канала
Расположение каналов : Front: L R
Частота : 48,0 КГц
Битовая глубина : 16 бит
Метод сжатия : С потерями
Размер потока : 116 Мбайт (9%)
Выравнивание : Разделение по промежуткам
Продолжительность промежутка : 40 мс. (1,00 видеокадр)
Время предзагрузки промежутка : 500 мс.
Релиз от: Nefchi1



Скачать Прикоснуться.к.надежде.A.Touch.of.Hope.(Крэйг.Р.Бэксли).[1999.драма.SATRip].[DVO].torrent без регистрации
Золото ЗОЛОТАЯ РАЗДАЧА! СКАЧАННОЕ НЕ ЗАСЧИТЫВАЕТСЯ! Золото
Дата: Зарегистрирован   [ Тип: внутренний ] Как тут cкачать?
MAGNET ссылка
MAGNET ссылка


Скачать .torrent

13 KB

Статус: проверено DHT
Скачан: торрент - 107 раз, раздача полностью - 0 раз
Размер: 1,29 GB
Оценка:  - (Голосов: 0)
Поблагодарили: 0
Поделиться ссылкой на эту раздачу с друзьями:
В контактеFacebookОдноклассникиTwitterLivejournalМой МирLiveinternet
 

 
Показать сообщения:    


Вы не можете начинать темы
Вы не можете отвечать на сообщения
Вы не можете редактировать свои сообщения
Вы не можете удалять свои сообщения
Вы не можете голосовать в опросах
Вы не можете прикреплять файлы к сообщениям
Вы можете скачивать файлы