Loading...
Error

Скачать Мэверик / Maverick (1994) BDRip-AVC][Dub]+[MVO]+[AVO]+[Оригинал]+[Sub] торрент без регистрации

 
Статистика раздачи
Размер:  2,18 GB   |    Скачан:  171 раз
Сидов:  1  [  0 KB/s  ]  
 
Автор Сообщение

Marsianka

[] 

Мэверик / Maverick (1994) BDRip-AVC

Информация о фильме
Название: Мэверик
Оригинальное название: Maverick
Год выхода: 1994
Жанр: боевик, триллер, комедия, приключения, вестерн
Режиссер: Ричард Доннер
В ролях: Мэл Гибсон, Джоди Фостер, Джеймс Гарнер, Грэм Грин, Альфред Молина, Джеймс Коберн, Даб Тейлор, Джеффри Льюис, Пол Л. Смит, Дэн Хедайя

О фильме:
История о великолепном картежнике, игроке в покер и, конечно, обаятельном мошеннике Брэте Маверике. О том, как он самоотверженно «зарабатывает» деньги для участия в чемпионате по игре в покер. Но не только он собирается принять участие в «великом мошенничестве» туда же стремится и обаятельная воровка Аннабел. Много приключений выпадет на их долю, пока им удастся набрать по 25 тысяч долларов, а именно такая сумма необходима для участия в игре.



Страна: США
Продолжительность: 02:06:36
Перевод: Дубляж (Мост-Видео) + Многоголосый закадровый (НТВ) + Авторский закадровый (А. Гаврилов) + Авторский закадровый (Ю. Живов) + Оригинал (Английский)

Файл
Кодек: h.264
Качество: BDRip-AVC
Видео: 1024x428 (2,40:1), 23.976 fps, 1501 kbps, 0.143 bit/pixel
Аудио#1: 48 kHz, AC3, 2/0 (L,R) ch, 192.00 kbps (Мост-Видео)
Аудио#2: 48 kHz, AC3, 2/0 (L,R) ch, 192.00 kbps (НТВ)
Аудио#3: 48 kHz, AC3, 2/0 (L,R) ch, 192.00 kbps (А. Гаврилов)
Аудио#4: 48 kHz, AC3, 2/0 (L,R) ch, 192.00 kbps (Ю. Живов)
Аудио#5: 48 kHz, AC3, 2/0 (L,R) ch, 192.00 kbps (Оригинал)

Общее
Уникальный идентификатор : 229473571289017278949774873475962713659 (0xACA30092BDDC2D608F9A6CFDC915363B)
Полное имя : D:Maverick.1994.BDRip-AVC.mkv
Формат : Matroska
Версия формата : Version 2
Размер файла : 2,18 Гбайт
Продолжительность : 2 ч. 6 м.
Общий поток : 2462 Кбит/сек
Название фильма : Мэверик / Maverick (1994) BDRip-AVC rip by Rulya74
Дата кодирования : UTC 2012-08-29 14:51:09
Программа кодирования : mkvmerge v5.7.0 ('The Whirlwind') built on Jul 8 2012 20:08:51
Библиотека кодирования : libebml v1.2.3 + libmatroska v1.3.0

Видео
Идентификатор : 1
Формат : AVC
Формат/Информация : Advanced Video Codec
Профиль формата : High@L4.1
Параметр CABAC формата : Да
Параметр ReFrames формата : 7 кадров
Идентификатор кодека : V_MPEG4/ISO/AVC
Продолжительность : 2 ч. 6 м.
Битрейт : 1501 Кбит/сек
Ширина : 1024 пикселя
Высота : 428 пикселей
Соотношение сторон : 2,40:1
Частота кадров : 23,976 кадра/сек
Цветовое пространство : YUV
Субдискретизация насыщенности : 4:2:0
Битовая глубина : 8 бит
Тип развёртки : Прогрессивная
Бит/(Пиксели*Кадры) : 0.143
Размер потока : 1,29 Гбайт (59%)
Библиотека кодирования : x264 core 125 r2208 d9d2288
Настройки программы : cabac=1 / ref=7 / deblock=1:-1:-1 / analyse=0x3:0x133 / me=umh / subme=9 / psy=1 / psy_rd=1.00:0.07 / mixed_ref=1 / me_range=32 / chroma_me=1 / trellis=2 / 8x8dct=1 / cqm=0 / deadzone=21,11 / fast_pskip=0 / chroma_qp_offset=-3 / threads=16 / lookahead_threads=2 / sliced_threads=0 / nr=0 / decimate=1 / interlaced=0 / bluray_compat=0 / constrained_intra=0 / bframes=6 / b_pyramid=2 / b_adapt=2 / b_bias=0 / direct=3 / weightb=1 / open_gop=0 / weightp=2 / keyint=240 / keyint_min=22 / scenecut=40 / intra_refresh=0 / rc=2pass / mbtree=0 / bitrate=1501 / ratetol=1.0 / qcomp=0.60 / qpmin=10 / qpmax=51 / qpstep=4 / cplxblur=20.0 / qblur=0.5 / ip_ratio=1.40 / pb_ratio=1.30 / aq=1:1.00
Default : Да
Forced : Нет

Аудио #1
Идентификатор : 2
Формат : AC-3
Формат/Информация : Audio Coding 3
Расширение режима : CM (complete main)
Идентификатор кодека : A_AC3
Продолжительность : 2 ч. 6 м.
Вид битрейта : Постоянный
Битрейт : 192 Кбит/сек
Каналы : 2 канала
Расположение каналов : Front: L R
Частота : 48,0 КГц
Битовая глубина : 16 бит
Метод сжатия : С потерями
Размер потока : 174 Мбайт (8%)
Заголовок : Профессиональный (дублированный) Мост-Видео
Язык : Russian
Default : Да
Forced : Нет

Аудио #2
Идентификатор : 3
Формат : AC-3
Формат/Информация : Audio Coding 3
Расширение режима : CM (complete main)
Идентификатор кодека : A_AC3
Продолжительность : 2 ч. 6 м.
Вид битрейта : Постоянный
Битрейт : 192 Кбит/сек
Каналы : 2 канала
Расположение каналов : Front: L R
Частота : 48,0 КГц
Битовая глубина : 16 бит
Метод сжатия : С потерями
Размер потока : 174 Мбайт (8%)
Заголовок : Профессиональный (многоголосый закадровый) НТВ
Язык : Russian
Default : Нет
Forced : Нет

Аудио #3
Идентификатор : 4
Формат : AC-3
Формат/Информация : Audio Coding 3
Расширение режима : CM (complete main)
Идентификатор кодека : A_AC3
Продолжительность : 2 ч. 6 м.
Вид битрейта : Постоянный
Битрейт : 192 Кбит/сек
Каналы : 2 канала
Расположение каналов : Front: L R
Частота : 48,0 КГц
Битовая глубина : 16 бит
Метод сжатия : С потерями
Размер потока : 174 Мбайт (8%)
Заголовок : Авторский (одноголосый закадровый) А.Гаврилов
Язык : Russian
Default : Нет
Forced : Нет

Аудио #4
Идентификатор : 5
Формат : AC-3
Формат/Информация : Audio Coding 3
Расширение режима : CM (complete main)
Идентификатор кодека : A_AC3
Продолжительность : 2 ч. 6 м.
Вид битрейта : Постоянный
Битрейт : 192 Кбит/сек
Каналы : 2 канала
Расположение каналов : Front: L R
Частота : 48,0 КГц
Битовая глубина : 16 бит
Метод сжатия : С потерями
Размер потока : 174 Мбайт (8%)
Заголовок : Авторский (одноголосый закадровый) Ю.Живов
Язык : Russian
Default : Нет
Forced : Нет

Аудио #5
Идентификатор : 6
Формат : AC-3
Формат/Информация : Audio Coding 3
Расширение режима : CM (complete main)
Идентификатор кодека : A_AC3
Продолжительность : 2 ч. 6 м.
Вид битрейта : Постоянный
Битрейт : 192 Кбит/сек
Каналы : 2 канала
Расположение каналов : Front: L R
Частота : 48,0 КГц
Битовая глубина : 16 бит
Метод сжатия : С потерями
Размер потока : 174 Мбайт (8%)
Заголовок : Оригинал
Язык : English
Default : Нет
Forced : Нет



Скачать Мэверик.Maverick.(1994).BDRip-AVC][Dub]+[MVO]+[AVO]+[Оригинал]+[Sub].torrent без регистрации
Золото ЗОЛОТАЯ РАЗДАЧА! СКАЧАННОЕ НЕ ЗАСЧИТЫВАЕТСЯ! Золото
Дата: Зарегистрирован   [ Тип: внутренний ] Как тут cкачать?
MAGNET ссылка
MAGNET ссылка


Скачать .torrent

11 KB

Статус: проверено DHT
Скачан: торрент - 171 раз, раздача полностью - 159 раз
Размер: 2,18 GB
Оценка:  5 (Голосов: 1)
Поблагодарили: 2
Поделиться ссылкой на эту раздачу с друзьями:
В контактеFacebookОдноклассникиTwitterLivejournalМой МирLiveinternet
 

 
Показать сообщения:    


Вы не можете начинать темы
Вы не можете отвечать на сообщения
Вы не можете редактировать свои сообщения
Вы не можете удалять свои сообщения
Вы не можете голосовать в опросах
Вы не можете прикреплять файлы к сообщениям
Вы можете скачивать файлы