Loading...
Error

Скачать Компаньоны / Franklin & Bash (Сезон 2, эпизод 01-08 из 10) [2012 г., Комедия, WEB-DL] [720p] [MVO] (To4ka) торрент без регистрации

 
Статистика раздачи
Размер:  11,47 GB   |    Скачан:  289 раз
Сидов:  1  [  0 KB/s  ]  
 
Автор Сообщение

leon030982

[] 

Компаньоны / Franklin & Bash
Год выпуска: 2012
Страна: США

Жанр: Комедия
Продолжительность: ~ 45 мин серия
Перевод: Любительский (многоголосный, закадровый)(To4ka)
Субтитры: Нет
Режиссёр: Джейсон Энслер, Стив Робин
В ролях:
Брекин Мейер, Стефани Карпентьери, Клэр Коффи, Майкл Ковингтон, Карина Родригез, Марк-Пол Госселаар, Рид Даймонд, Дэна Дэвис, Гарсель Бове, Кумэйл Нанджиани
Описание:
Двое молодых, уличных адвоката, после выигрыша крупного дела над легендарной юридической фирмой были приняты на работу её основателем, однако из-за его неэтичного поведения адвокаты постоянно оказываются в неприятностях.


Качество: WEB-DL
Формат: MKV

Видео кодек: AVC
Аудио кодек: AC3
Видео: AVC, 1280x720 (16/9), 23.976 fps, 4 051 Kbps (0.183 bit/pixel)
Аудио Rus: AC-3, 48.0 KHz, 6 ch, 384 Kbps, CBR (Russian)
Аудио Eng: AC-3, 48.0 KHz, 6 ch, 384 Kbps, CBR (English)
Релиз: по заказу Seasonvar
Роли озвучивали: Александр Нелюбин, Андрей Хомяков, Ирина Грачева и Марина Комчарукова
Перевод на русский язык: Оксана Графутко

Семпл:http://multi-up.com/721351
General
Unique ID : 242415419397062217564486449395020932326 (0xB65F82F2F62908289483E069C35D24E6)
Complete name : D:\Франклин и Бэш s02 720p To4ka\Franklin.and.Bash.s02e01.WEB-DL.720p.Rus.Eng.To4ka.TV.mkv
Format : Matroska
File size : 1.45 GiB
Duration : 42mn 5s
Overall bit rate : 4 917 Kbps
Encoded date : UTC 2012-06-19 19:57:14
Writing application : mkvmerge v2.0.0 ('After The Rain Has Fallen') built on Jan 13 2007 19:58:56
Writing library : libebml v0.7.7 + libmatroska v0.8.0
Video
ID : 1
Format : AVC
Format/Info : Advanced Video Codec
Format profile : High@L3.1
Format settings, CABAC : No
Format settings, ReFrames : 2 frames
Format settings, GOP : M=2, N=24
Codec ID : V_MPEG4/ISO/AVC
Duration : 42mn 5s
Bit rate : 4 051 Kbps
Width : 1 280 pixels
Height : 720 pixels
Display aspect ratio : 16:9
Frame rate : 23.976 fps
Color space : YUV
Chroma subsampling : 4:2:0
Bit depth : 8 bits
Scan type : Progressive
Bits/(Pixel*Frame) : 0.183
Stream size : 1.19 GiB (82%)
Language : English
Color primaries : BT.709-5, BT.1361, IEC 61966-2-4, SMPTE RP177
Transfer characteristics : BT.709-5, BT.1361
Matrix coefficients : BT.709-5, BT.1361, IEC 61966-2-4 709, SMPTE RP177
Audio #1
ID : 2
Format : AC-3
Format/Info : Audio Coding 3
Mode extension : CM (complete main)
Codec ID : A_AC3
Duration : 42mn 5s
Bit rate mode : Constant
Bit rate : 384 Kbps
Channel(s) : 6 channels
Channel positions : Front: L C R, Side: L R, LFE
Sampling rate : 48.0 KHz
Bit depth : 16 bits
Compression mode : Lossy
Stream size : 116 MiB (8%)
Title : To4ka.TV
Language : Russian
Audio #2
ID : 3
Format : AC-3
Format/Info : Audio Coding 3
Mode extension : CM (complete main)
Codec ID : A_AC3
Duration : 42mn 5s
Bit rate mode : Constant
Bit rate : 384 Kbps
Channel(s) : 6 channels
Channel positions : Front: L C R, Side: L R, LFE
Sampling rate : 48.0 KHz
Bit depth : 16 bits
Compression mode : Lossy
Stream size : 116 MiB (8%)
Language : English
Внимание! Раздача ведётся путём добавления новых серий; при каждом добавлении создётся новый торрент. Чтобы начать докачку новой серии, пользователям необходимо сделать следующее: (1) остановить скачивание, (2) удалить старый торрент у себя из клиента (старые серии удалять не надо), (3) скачать новый торрент и запустить его у себя в клиенте вместо старого, при этом указать клиенту путь в старую папку куда и должно происходить скачивание новых серий.
Ваш клиент при этом должен произвести хеширование (проверку) старой папки (если не производит сам - помогите ему сделать это), и будет докачивать только те серии которых у вас ещё нет. Старые серии при этом не удаляются, а продолжают раздаваться!
Eсли вы уже удалили старые серии, то предотвратить повторную закачку старых серий можно, отжав галочку в соответсвующих местах при запуске нового торрента.



Скачать Компаньоны.Franklin.&.Bash.(Сезон.2.эпизод.01-08.из.10).[2012.г.Комедия.WEB-DL].[720p].[MVO].(To4ka).torrent без регистрации
Золото ЗОЛОТАЯ РАЗДАЧА! СКАЧАННОЕ НЕ ЗАСЧИТЫВАЕТСЯ! Золото
Дата: Зарегистрирован   [ Тип: внутренний ] Как тут cкачать?
MAGNET ссылка
MAGNET ссылка


Скачать .torrent

59 KB

Статус: проверено DHT
Скачан: торрент - 289 раз, раздача полностью - 2 раз
Размер: 11,47 GB
Оценка:  - (Голосов: 0)
Поблагодарили: 1
Поделиться ссылкой на эту раздачу с друзьями:
В контактеFacebookОдноклассникиTwitterLivejournalМой МирLiveinternet
 

 
Показать сообщения:    


Вы не можете начинать темы
Вы не можете отвечать на сообщения
Вы не можете редактировать свои сообщения
Вы не можете удалять свои сообщения
Вы не можете голосовать в опросах
Вы не можете прикреплять файлы к сообщениям
Вы можете скачивать файлы