Loading...
Error

Скачать Повелитель слонов/ The Wylds (Патрик Гранперре / Patrick Grandperret) [1995 г., Приключения, DVDRip] [DVO] (НТВ) торрент без регистрации

 
Статистика раздачи
Размер:  993 MB   |    Скачан:  137 раз
Сидов:  1  [  0 KB/s  ]  
 
Автор Сообщение

deniska1975

[] 

Повелитель слонов / Le maitre des elephants (1995) DVDRip

Русское название: Повелитель слонов
Оригинальное название: Le maitre des elephants
Год выпуска: 1995
Жанр: Приключения
Производство: Франция; CIBY 2000 – Le Studio Canal +
Продолжительность: 01:37:01
Перевод: Двуголосый закадровый (НТВ)
Автор перевода: Евгений Осипов
Режиссер: Патрик Гранперре / Patrick Grandperret
Актеры: Жак Дютрон, Сотиги Куете, Халилу Буба, Эрван Бейно, Виктор Тиж Зра, Аден Артур
Описание фильма:
После смерти матери тринадцатилетний Мартин отправляется в Африку к своему отцу, которого никогда не видел. Там он знакомится с туземными обычаями...


Дата мировой премьеры: 20 декабря 1995

Благодарности:
galmuchet за этот DVDRip
Dean Corso за TVRip с русской дорожкой

Внимание! С 01:05:25 по 01:05:39 отсутствует перевод.

Файл:
Формат: AVI
Качество: DVDRip
Видео: XviD, 672 x 288 (2.35:1), 25.000 fps, 1097 kbps, 0.23 b/p
Аудио 1: MP3, 48000 Hz, 2 ch, 128 kbps (русский)
Аудио 2: AC-3, 48000 Hz, 2 ch, 192 kbps (французский)

General
Complete name : C:\Users\1\Desktop\Релизы\Повелитель слонов\lema itred esele fants\Le Maitre des Elephants.avi
Format : AVI
Format/Info : Audio Video Interleave
File size : 993 MiB
Duration : 1h 37mn
Overall bit rate : 1 431 Kbps
Writing application : VirtualDubMod 1.5.10.2 (build 2540/release)
Writing library : VirtualDubMod build 2540/release

Video
ID : 0
Format : MPEG-4 Visual
Format profile : Advanced Simple@L5
Format settings, BVOP : 1
Format settings, QPel : No
Format settings, GMC : No warppoints
Format settings, Matrix : Default (MPEG)
Muxing mode : Packed bitstream
Codec ID : XVID
Codec ID/Hint : XviD
Duration : 1h 37mn
Bit rate : 1 097 Kbps
Width : 672 pixels
Height : 288 pixels
Display aspect ratio : 2.35:1
Frame rate : 25.000 fps
Color space : YUV
Chroma subsampling : 4:2:0
Bit depth : 8 bits
Scan type : Progressive
Compression mode : Lossy
Bits/(Pixel*Frame) : 0.227
Stream size : 761 MiB (77%)
Writing library : XviD 1.2.1 (UTC 2008-12-04)

Audio #1
ID : 1
Format : MPEG Audio
Format version : Version 1
Format profile : Layer 3
Codec ID : 55
Codec ID/Hint : MP3
Duration : 1h 37mn
Bit rate mode : Constant
Bit rate : 128 Kbps
Channel(s) : 2 channels
Sampling rate : 48.0 KHz
Compression mode : Lossy
Stream size : 88.8 MiB (9%)
Alignment : Aligned on interleaves
Interleave, duration : 40 ms (1.00 video frame)
Interleave, preload duration : 504 ms
Writing library : LAME3.99r
Encoding settings : -m s -V 4 -q 2 -lowpass 17 -b 128

Audio #2
ID : 2
Format : MPEG Audio
Format version : Version 1
Format profile : Layer 3
Mode : Joint stereo
Codec ID : 55
Codec ID/Hint : MP3
Duration : 1h 37mn
Bit rate mode : Constant
Bit rate : 192 Kbps
Channel(s) : 2 channels
Sampling rate : 48.0 KHz
Compression mode : Lossy
Stream size : 133 MiB (13%)
Alignment : Aligned on interleaves
Interleave, duration : 40 ms (1.00 video frame)
Interleave, preload duration : 504 ms
Writing library : LAME3.97
Encoding settings : -m j -V 4 -q 2 -lowpass 18.6 -b 192



Скачать Повелитель.слонов.The.Wylds.(Патрик.Гранперре.Patrick.Grandperret).[1995.г.Приключения.DVDRip].[DVO].(НТВ).torrent без регистрации
Золото ЗОЛОТАЯ РАЗДАЧА! СКАЧАННОЕ НЕ ЗАСЧИТЫВАЕТСЯ! Золото
Дата: Зарегистрирован   [ Тип: внутренний ] Как тут cкачать?
MAGNET ссылка
MAGNET ссылка


Скачать .torrent

20 KB

Статус: проверено DHT
Скачан: торрент - 137 раз, раздача полностью - 11 раз
Размер: 993 MB
Оценка:  5 (Голосов: 1)
Поблагодарили: 2
Поделиться ссылкой на эту раздачу с друзьями:
В контактеFacebookОдноклассникиTwitterLivejournalМой МирLiveinternet
 

 
Показать сообщения:    


Вы не можете начинать темы
Вы не можете отвечать на сообщения
Вы не можете редактировать свои сообщения
Вы не можете удалять свои сообщения
Вы не можете голосовать в опросах
Вы не можете прикреплять файлы к сообщениям
Вы можете скачивать файлы