Loading...
Error

Скачать Битлз - Вечер трудного дня / The Beatles - A Hard Day's Night (Ричард Лестер) [1964, мюзикл, комедия, BDRip] [MVO]+[Sub] торрент без регистрации

 
Статистика раздачи
Размер:  1,46 GB   |    Скачан:  116 раз
Сидов:  1  [  0 KB/s  ]  
 
Автор Сообщение

Marsianka

[] 

Страна: Великобритания
Студия: Proscenium Films
Жанр: мюзикл, комедия
Год выпуска: 1964
Продолжительность: 1:27:48

Перевод: Профессиональный (многоголосый закадровый)
Cубтитры: русский
Оригинальная аудиодорожка: английский

Режиссер: Ричард Лестер / Richard Lester

В ролях: Уилфред Брэмбелл /Wilfrid Brambell/, Виктор Спинетти /Victor Spinetti/, Анна Куэйл /Anna Quayle/, Норман Россингтон /Norman Rossington/, Джон Джанкин /John Junkin/, Дерик Гайлер /Deryck Guyler/, Ринго Старр /Ringo Starr/, Пол МакКартни /Paul McCartney/, Джон Леннон /John Lennon/, Джордж Хэррисон /George Harrison/

Описание: 1964 год: начало Битломании. БИТЛЗ дебютируют на американской сцене в шоу Эда Салливана. Режиссер Ричард Лестер делает первый фильм о группе, сняв его в жанре музыкальной комедии. "Вечер трудного дня" рассказывает фэнам группы об одном дне в жизни ВЕЛИКОЙ ЧЕТВЕРКИ...

Исходник: BDRemux 1080i
Качество видео: BDRip
Формат видео: AVI

Видео: 720x432 (1,667:1), 23.976 fps, XviD ~ 1918 kbps avg, 0.257 bit/pixel
Аудио: 48 kHz, AC3 Dolby Digital, 3/2 (L,C,R,l,r) + LFE ch, 448.00 kbps
Формат субтитров: SoftSub (srt)

Общее
Полное имя : E:Tracker2012Vecher.trudnogo.dnja.1964Vecher.trudnogo.dnja.1964.BDRip.avi
Формат : AVI
Формат/Информация : Audio Video Interleave
Размер файла : 1,46 Гбайт
Продолжительность : 1 ч. 27 м.
Общий поток : 2375 Кбит/сек
Программа кодирования : VirtualDubMod 1.5.10.3 | www.virtualdub-fr.org || (build 2550/release)
Библиотека кодирования : VirtualDubMod build 2550/release

Видео
Идентификатор : 0
Формат : MPEG-4 Visual
Профиль формата : Advanced Simple@L5
Параметр BVOP формата : 1
Параметр QPel формата : Нет
Параметр GMC формата : Без точки перехода
Параметр матрицы формата : Выборочная
Идентификатор кодека : XVID
Идентификатор кодека/Подсказка : XviD
Продолжительность : 1 ч. 27 м.
Битрейт : 1918 Кбит/сек
Ширина : 720 пикселей
Высота : 432 пикселя
Соотношение сторон : 1,667
Частота кадров : 23,976 кадра/сек
Цветовое пространство : YUV
Субдискретизация насыщенности : 4:2:0
Битовая глубина : 8 бит
Тип развёртки : Прогрессивная
Метод сжатия : С потерями
Бит/(Пиксели*Кадры) : 0.257
Размер потока : 1,18 Гбайт (81%)
Библиотека кодирования : XviD 65

Аудио
Идентификатор : 1
Формат : AC-3
Формат/Информация : Audio Coding 3
Расширение режима : CM (complete main)
Идентификатор кодека : 2000
Продолжительность : 1 ч. 27 м.
Вид битрейта : Постоянный
Битрейт : 448 Кбит/сек
Каналы : 6 каналов
Расположение каналов : Front: L C R, Side: L R, LFE
Частота : 48,0 КГц
Битовая глубина : 16 бит
Метод сжатия : С потерями
Размер потока : 281 Мбайт (19%)
Выравнивание : Разделение по промежуткам
Продолжительность промежутка : 42 мс. (1,00 видеокадр)
Время предзагрузки промежутка : 500 мс
Раздача от:



Скачать Битлз.-.Вечер.трудного.дня.The.Beatles.-.A.Hard.Day's.Night.(Ричард.Лестер).[1964.мюзикл.комедия.BDRip].[MVO]+[Sub].torrent без регистрации
Золото ЗОЛОТАЯ РАЗДАЧА! СКАЧАННОЕ НЕ ЗАСЧИТЫВАЕТСЯ! Золото
Дата: Зарегистрирован   [ Тип: внутренний ] Как тут cкачать?
MAGNET ссылка
MAGNET ссылка


Скачать .torrent

15 KB

Статус: проверено DHT
Скачан: торрент - 116 раз, раздача полностью - 2 раз
Размер: 1,46 GB
Оценка:  - (Голосов: 0)
Поблагодарили: 1
Поделиться ссылкой на эту раздачу с друзьями:
В контактеFacebookОдноклассникиTwitterLivejournalМой МирLiveinternet
 

 
Показать сообщения:    


Вы не можете начинать темы
Вы не можете отвечать на сообщения
Вы не можете редактировать свои сообщения
Вы не можете удалять свои сообщения
Вы не можете голосовать в опросах
Вы не можете прикреплять файлы к сообщениям
Вы можете скачивать файлы