Loading...
Error

Скачать Битлз - Вечер трудного дня / The Beatles - A Hard Day's Night (Ричард Лестер) [1964, мюзикл, комедия, BDRip-AVC] [MVO]+[Sub]+[Оригинал] торрент без регистрации

 
Статистика раздачи
Размер:  1,65 GB   |    Скачан:  124 раза
Сидов:  1  [  0 KB/s  ]  
 
Автор Сообщение

Marsianka

[] 

Страна: Великобритания
Студия: Proscenium Films
Жанр: мюзикл, комедия
Год выпуска: 1964
Продолжительность: 1:27:48

Перевод: Профессиональный (многоголосый закадровый)
Cубтитры: русский
Оригинальная аудиодорожка: английский

Режиссер: Ричард Лестер / Richard Lester

В ролях: Уилфред Брэмбелл /Wilfrid Brambell/, Виктор Спинетти /Victor Spinetti/, Анна Куэйл /Anna Quayle/, Норман Россингтон /Norman Rossington/, Джон Джанкин /John Junkin/, Дерик Гайлер /Deryck Guyler/, Ринго Старр /Ringo Starr/, Пол МакКартни /Paul McCartney/, Джон Леннон /John Lennon/, Джордж Хэррисон /George Harrison/

Описание: 1964 год: начало Битломании. БИТЛЗ дебютируют на американской сцене в шоу Эда Салливана. Режиссер Ричард Лестер делает первый фильм о группе, сняв его в жанре музыкальной комедии. "Вечер трудного дня" рассказывает фэнам группы об одном дне в жизни ВЕЛИКОЙ ЧЕТВЕРКИ...

Исходник: BDRemux 1080i
Качество видео: BDRip-AVC
Формат видео: MKV

Видео: 960x576 (1,667:1), 23.976 fps, XviD ~ 1744 kbps avg, 0.132 bit/pixel
Аудио 1: 48 kHz, AC3 Dolby Digital, 3/2 (L,C,R,l,r) + LFE ch, 448.00 kbps Русский
Аудио 2: 48 kHz, AC3 Dolby Digital, 3/2 (L,C,R,l,r) + LFE ch, 448.00 kbps Английский
Формат субтитров: SoftSub (srt)

Общее
Полное имя : Vecher.trudnogo.dnja.1964Vecher.trudnogo.dnja.1964.BDRip-AVC.mkv
Формат : Matroska
Версия формата : Version 2
Размер файла : 1,65 Гбайт
Продолжительность : 1 ч. 27 м.
Общий поток : 2693 Кбит/сек
Название фильма : Vecher.trudnogo.dnja.1964.BDRip-AVC AVP Studio
Дата кодирования : UTC 2012-06-20 17:23:15
Программа кодирования : mkvmerge v5.6.0 ('Kenya Kane') built on May 27 2012 16:44:04
Библиотека кодирования : libebml v1.2.3 + libmatroska v1.3.0

Видео
Идентификатор : 1
Формат : AVC
Формат/Информация : Advanced Video Codec
Профиль формата : High@L4.1
Параметр CABAC формата : Да
Параметр ReFrames формата : 11 кадров
Идентификатор кодека : V_MPEG4/ISO/AVC
Продолжительность : 1 ч. 27 м.
Битрейт : 1744 Кбит/сек
Номинальный битрейт : 1925 Кбит/сек
Ширина : 960 пикселей
Высота : 576 пикселей
Соотношение сторон : 1,667
Частота кадров : 23,976 кадра/сек
Цветовое пространство : YUV
Субдискретизация насыщенности : 4:2:0
Битовая глубина : 8 бит
Тип развёртки : Прогрессивная
Бит/(Пиксели*Кадры) : 0.132
Размер потока : 1,07 Гбайт (65%)
Заголовок : Источник BDRemux
Библиотека кодирования : x264 core 119 r2106 07efeb4
Настройки программы : cabac=1 / ref=11 / deblock=1:-2:-1 / analyse=0x3:0x113 / me=umh / subme=9 / psy=1 / psy_rd=1.00:0.10 / mixed_ref=1 / me_range=32 / chroma_me=1 / trellis=1 / 8x8dct=1 / cqm=0 / deadzone=21,11 / fast_pskip=0 / chroma_qp_offset=-3 / threads=3 / sliced_threads=0 / nr=0 / decimate=1 / interlaced=0 / bluray_compat=0 / constrained_intra=0 / bframes=10 / b_pyramid=2 / b_adapt=1 / b_bias=0 / direct=3 / weightb=1 / open_gop=0 / weightp=2 / keyint=240 / keyint_min=23 / scenecut=40 / intra_refresh=0 / rc_lookahead=60 / rc=2pass / mbtree=1 / bitrate=1925 / ratetol=1.0 / qcomp=0.60 / qpmin=0 / qpmax=69 / qpstep=4 / cplxblur=20.0 / qblur=0.5 / ip_ratio=1.40 / aq=1:1.00
Язык : English
Default : Да
Forced : Нет

Аудио #1
Идентификатор : 2
Формат : AC-3
Формат/Информация : Audio Coding 3
Расширение режима : CM (complete main)
Идентификатор кодека : A_AC3
Продолжительность : 1 ч. 27 м.
Вид битрейта : Постоянный
Битрейт : 448 Кбит/сек
Каналы : 6 каналов
Расположение каналов : Front: L C R, Side: L R, LFE
Частота : 48,0 КГц
Битовая глубина : 16 бит
Метод сжатия : С потерями
Размер потока : 281 Мбайт (17%)
Заголовок : Источник BDRemux
Язык : Russian
Default : Да
Forced : Нет

Аудио #2
Идентификатор : 3
Формат : AC-3
Формат/Информация : Audio Coding 3
Расширение режима : CM (complete main)
Идентификатор кодека : A_AC3
Продолжительность : 1 ч. 27 м.
Вид битрейта : Постоянный
Битрейт : 448 Кбит/сек
Каналы : 6 каналов
Расположение каналов : Front: L C R, Side: L R, LFE
Частота : 48,0 КГц
Битовая глубина : 16 бит
Метод сжатия : С потерями
Задержка видео : 16 мс.
Размер потока : 281 Мбайт (17%)
Заголовок : Источник DVD
Язык : English
Default : Нет
Forced : Нет

Текст
Идентификатор : 4
Формат : UTF-8
Идентификатор кодека : S_TEXT/UTF8
Идентификатор кодека/Информация : UTF-8 Plain Text
Заголовок : Автор: Капитан
Язык : Russian
Default : Нет
Forced : Нет

Меню
00:00:00.000 : ru:00:00:00.000000000
00:05:00.000 : :00:05:00.000000000
00:10:00.000 : :00:10:00.000000000
00:15:00.000 : :00:15:00.000000000
00:20:00.000 : :00:20:00.000000000
00:25:00.000 : :00:25:00.000000000
00:30:00.000 : :00:30:00.000000000
00:35:00.000 : :00:35:00.000000000
00:40:00.000 : :00:40:00.000000000
00:45:00.000 : :00:45:00.000000000
00:50:00.000 : :00:50:00.000000000
00:55:00.000 : :00:55:00.000000000
01:00:00.000 : :01:00:00.000000000
01:05:00.000 : :01:05:00.000000000
01:10:00.000 : :01:10:00.000000000
01:15:00.000 : :01:15:00.000000000
01:20:00.000 : :01:20:00.000000000
01:25:00.000 : :01:25:00.000000000
Раздача от:



Скачать Битлз.-.Вечер.трудного.дня.The.Beatles.-.A.Hard.Day's.Night.(Ричард.Лестер).[1964.мюзикл.комедия.BDRip-AVC].[MVO]+[Sub]+[Оригинал].torrent без регистрации
Золото ЗОЛОТАЯ РАЗДАЧА! СКАЧАННОЕ НЕ ЗАСЧИТЫВАЕТСЯ! Золото
Дата: Зарегистрирован   [ Тип: внутренний ] Как тут cкачать?
MAGNET ссылка
MAGNET ссылка


Скачать .torrent

17 KB

Статус: проверено DHT
Скачан: торрент - 124 раз, раздача полностью - 40 раз
Размер: 1,65 GB
Оценка:  - (Голосов: 0)
Поблагодарили: 1
Поделиться ссылкой на эту раздачу с друзьями:
В контактеFacebookОдноклассникиTwitterLivejournalМой МирLiveinternet
 

 
Показать сообщения:    


Вы не можете начинать темы
Вы не можете отвечать на сообщения
Вы не можете редактировать свои сообщения
Вы не можете удалять свои сообщения
Вы не можете голосовать в опросах
Вы не можете прикреплять файлы к сообщениям
Вы можете скачивать файлы