Loading...
Error

Скачать Баффи - истребительница вампиров / Buffy The Vampire Slayer (Фрэн Рубел Кузуи / Fran Rubel Kuzui) [1992, комедия, ужасы, BDRip] [MVO] торрент без регистрации

 
Статистика раздачи
Размер:  723 MB   |    Скачан:  125 раз
Сидов:  1  [  0 KB/s  ]  
 
Автор Сообщение

leon030982

[] 

Баффи - истребительница вампиров / Buffy The Vampire Slayer


Год выпуска: 1992
Страна: США
Жанр: комедия, ужасы
Продолжительность: 01:25:31
Перевод: Профессиональный (многоголосый закадровый)
Cубтитры: нет

Режиссер: Фрэн Рубел Кузуи / Fran Rubel Kuzui

В ролях: Кристи Суонсон, Дональд Сазерленд, Пол Рубенс, Рутгер Хауэр, Люк Перри, Мишель Абрамс, Хилари Суэнк, Пэрис Вон, Дэвид Аркетт, Рэндолл Батинкофф, Эндрю Лоури, Саша Дженсон, Стивен Рут, Наташа Грегсон Вагнер, Марк ДеКарло, Томас Джейн, Кэнди Кларк, Джеймс Парадайз, Дэвид Шеррилл, Лиз Смит, Пол М. Лэйн, Тоби Холгин, Эйрлин Эппер, Андре Уоррен, Эрика Диттнер, Майкл Копелов, Рики Дин Логан, Бобби Элдридж, Аманда Энка, Аль Гото, Терри Джексон, Майк Джонсон, Сара Ли Джонс, Чи Муи Ло, Бен Аффлек

Описание: Познакомьтесь с Баффи. У нее была мечта - закончить школу, уехать в Европу и выйти замуж. План серьезный и требующий усердия. Жизнь вовсе не казалась ей скучной: магазины, вечеринки, спортзал, группа поддержки местной спортивной команды и прочее. Ее находит странный тип и, едва представившись, начинает погружать в премудрости совсем другой жизни. Оказывается, человечество не одиноко: где-то рядом, среди нас, живут вампиры. Баффи узнаёт, что она избрана и ее основная профессия - освобождать обычных людей от неприятного соседства...



Качество видео: BDRip
Формат видео: AVI
Видео: 688x368 (1.87:1), 23.976 fps, XviD 1.2.1, 1045 kbps avg, 0.17 bit/pixel
Аудио: 48 kHz, MPEG Layer 3, 2 ch, 128.00 kbps avg
Complete name : F:\Buffy\Buffy The Vampire Slayer.avi
Format : AVI
Format/Info : Audio Video Interleave
File size : 723 MiB
Duration : 1h 25mn
Overall bit rate : 1 182 Kbps
Writing application : VirtualDubMod 1.5.10.3 (build 2550/release)
Writing library : VirtualDubMod build 2550/release
Video
ID : 0
Format : MPEG-4 Visual
Format profile : Advanced Simple@L5
Format settings, BVOP : 1
Format settings, QPel : No
Format settings, GMC : No warppoints
Format settings, Matrix : Custom
Codec ID : XVID
Codec ID/Hint : XviD
Duration : 1h 25mn
Bit rate : 1 045 Kbps
Width : 688 pixels
Height : 368 pixels
Display aspect ratio : 1.870
Frame rate : 23.976 fps
Color space : YUV
Chroma subsampling : 4:2:0
Bit depth : 8 bits
Scan type : Progressive
Compression mode : Lossy
Bits/(Pixel*Frame) : 0.172
Stream size : 639 MiB (88%)
Writing library : XviD 1.2.1 (UTC 2008-12-04)
Audio
ID : 1
Format : MPEG Audio
Format version : Version 1
Format profile : Layer 3
Codec ID : 55
Codec ID/Hint : MP3
Duration : 1h 25mn
Bit rate mode : Constant
Bit rate : 128 Kbps
Channel(s) : 2 channels
Sampling rate : 48.0 KHz
Compression mode : Lossy
Stream size : 78.3 MiB (11%)
Interleave, duration : 42 ms (1.00 video frame)
Interleave, preload duration : 504 ms
Writing library : LAME3.99 -m s -b 128 -q 2 --replaygain-accurate



Скачать Баффи.-.истребительница.вампиров.Buffy.The.Vampire.Slayer.(Фрэн.Рубел.Кузуи.Fran.Rubel.Kuzui).[1992.комедия.ужасы.BDRip].[MVO].torrent без регистрации
Золото ЗОЛОТАЯ РАЗДАЧА! СКАЧАННОЕ НЕ ЗАСЧИТЫВАЕТСЯ! Золото
Дата: Зарегистрирован   [ Тип: внутренний ] Как тут cкачать?
MAGNET ссылка
MAGNET ссылка


Скачать .torrent

15 KB

Статус: проверено DHT
Скачан: торрент - 125 раз, раздача полностью - 4 раз
Размер: 723 MB
Оценка:  - (Голосов: 0)
Поблагодарили: 0
Поделиться ссылкой на эту раздачу с друзьями:
В контактеFacebookОдноклассникиTwitterLivejournalМой МирLiveinternet
 

 
Показать сообщения:    


Вы не можете начинать темы
Вы не можете отвечать на сообщения
Вы не можете редактировать свои сообщения
Вы не можете удалять свои сообщения
Вы не можете голосовать в опросах
Вы не можете прикреплять файлы к сообщениям
Вы можете скачивать файлы