Loading...
Error

Скачать Мой папа, моя мама, мои братья и сестры / Mon père, ma mère, mes frères et mes soeurs (Шарлотт де Тюркейм) [1999 г., комедия, семейный, DVDRip] [MVO] (ТНТ) торрент без регистрации

Статистика раздачи
Размер:  776 MB   |    Скачан:  140 раз
Сидов:  1  [  0 KB/s  ]  

 
 
 
Автор Сообщение

deniska1975

[] 

Мой папа, моя мама, мои братья и сестры /
Mon père, ma mère, mes frères et mes soeurs

Название: Мой папа, моя мама, мои братья и сестры
Оригинальное название: Mon père, ma mère, mes frères et mes soeurs
Год выпуска: 1999
Страна: Франция , Испания
Жанр: комедия, семейный
Продолжительность: 01:31:38
Перевод: Профессиональный (многоголосый, закадровый) (ТНТ)
Субтитры: нету
Режиссер: Шарлотт де Тюркейм
В ролях: Виктория Абриль, Шарлотт де Тюркейм, Ален Базюн, Philippe Giangreco, Марк Андреони, Руди Розенберг, Элоди Болли, Антонио Валеро, Тьерри Буенафуенте
Описание: Молодая энергичная женщина, имеющая троих детей от разных мужчин, решает устроить общий семейный праздник в шикарном отеле. Но есть один маленький нюанс! Дети не знают, кто является их отцами, а папы до последнего момента даже не подозревали о существовании своих отпрысков!



Качество: DVDRip
Формат: AVI
Видео кодек: DivX
Аудио кодек: MP3
Видео: 720x416 (1.73:1), 25 fps, DivX Codec 5.03 ~945 kbps avg, 0.13 bit/pixel
Аудио 1: 48 kHz, MPEG Layer 3, 2 ch, ~128.00 kbps avg (русский)
Аудио 2: 48 kHz, MPEG Layer 3, 2 ch, ~128.00 kbps avg (французский)
Общее
Полное имя : D:\Фильмы\Mon.Pere.avi
Формат : AVI
Формат/Информация : Audio Video Interleave
Размер файла : 776 Мбайт
Продолжительность : 1 ч. 31 м.
Общий поток : 1185 Кбит/сек
Программа кодирования : VirtualDubMod 1.5.10.2 (build 2540/release)
Библиотека кодирования : VirtualDubMod build 2540/release

Видео
Идентификатор : 0
Формат : MPEG-4 Visual
Параметр BVOP формата : Нет
Параметр QPel формата : Нет
Параметр GMC формата : Без точки перехода
Параметр матрицы формата : Default (H.263)
Идентификатор кодека : DX50
Идентификатор кодека/Подсказка : DivX 5
Продолжительность : 1 ч. 31 м.
Битрейт : 946 Кбит/сек
Ширина : 720 пикселей
Высота : 416 пикселей
Соотношение сторон : 16:9
Частота кадров : 25,000 кадров/сек
Цветовое пространство : YUV
Субдискретизация насыщенности : 4:2:0
Битовая глубина : 8 бит
Тип развёртки : Прогрессивная
Метод сжатия : С потерями
Бит/(Пиксели*Кадры) : 0.126
Размер потока : 620 Мбайт (80%)
Библиотека кодирования : DivX 5.0.3 (UTC 2003-01-24)

Аудио #1
Идентификатор : 1
Формат : MPEG Audio
Версия формата : Version 1
Профиль формата : Layer 3
Идентификатор кодека : 55
Идентификатор кодека/Подсказка : MP3
Продолжительность : 1 ч. 31 м.
Вид битрейта : Постоянный
Битрейт : 128 Кбит/сек
Каналы : 2 канала
Частота : 48,0 КГц
Метод сжатия : С потерями
Размер потока : 83,9 Мбайт (11%)
Выравнивание : Соединение по промежуткам
Продолжительность промежутка : 40 мс. (1,00 видеокадр)
Время предзагрузки промежутка : 504 мс.
Библиотека кодирования : LAME3.99r
Настройки программы : -m s -V 4 -q 2 -lowpass 17 -b 128

Аудио #2
Идентификатор : 2
Формат : MPEG Audio
Версия формата : Version 1
Профиль формата : Layer 3
Режим : Joint stereo
Расширение режима : MS Stereo
Идентификатор кодека : 55
Идентификатор кодека/Подсказка : MP3
Продолжительность : 1 ч. 31 м.
Вид битрейта : Постоянный
Битрейт : 96,0 Кбит/сек
Каналы : 2 канала
Частота : 48,0 КГц
Метод сжатия : С потерями
Размер потока : 62,9 Мбайт (8%)
Выравнивание : Разделение по промежуткам
Продолжительность промежутка : 40 мс. (1,00 видеокадр)
Время предзагрузки промежутка : 500 мс.




Скачать Мой.папа.моя.мама.мои.братья.и.сестры.Mon.père.ma.mère.mes.frères.et.mes.soeurs.(Шарлотт.де.Тюркейм).[1999.г.комедия.семейный.DVDRip].[MVO].(ТНТ).torrent без регистрации
Золото ЗОЛОТАЯ РАЗДАЧА! СКАЧАННОЕ НЕ ЗАСЧИТЫВАЕТСЯ! Золото
Дата: Зарегистрирован   [ Тип: внутренний ] Как тут cкачать?
MAGNET ссылка
MAGNET ссылка


Скачать .torrent

16 KB

Статус: проверено DHT
Скачан: торрент - 140 раз, раздача полностью - 54 раз
Размер: 776 MB
Оценка:  5 (Голосов: 1)
Поблагодарили: 2
Поделиться ссылкой на эту раздачу с друзьями:
В контактеFacebookОдноклассникиTwitterLivejournalМой МирLiveinternet
 

 
Показать сообщения:    


Вы не можете начинать темы
Вы не можете отвечать на сообщения
Вы не можете редактировать свои сообщения
Вы не можете удалять свои сообщения
Вы не можете голосовать в опросах
Вы не можете прикреплять файлы к сообщениям
Вы можете скачивать файлы