Loading...
Error

Скачать Одетта Тулемонд / Odette Toulemonde (Эрик-Эмманюэль Шмитт) [2006, комедия, драма, DVDRip] [DVO] торрент без регистрации

 
Статистика раздачи
Размер:  740 MB   |    Скачан:  120 раз
Сидов:  1  [  0 KB/s  ]  
 
Автор Сообщение

Marsianka

[] 

Информация о фильме
Название: Одетта Тулемонд
Оригинальное название: Odette Toulemonde
Страна: Франция, Бельгия
Жанр: комедия, драма
Год выпуска: 2006
Продолжительность: 01:36:28
Перевод: Любительский (двухголосый закадровый)
Cубтитры: нет

Режиссер: Эрик-Эмманюэль Шмитт / Eric-Emmanuel Schmitt

В ролях: Катрин Фро, Альбер Дюпонтель, Жак Вебер, Ален Дуте, Камила Джепи, Фабрис Мурджа и др.

Описание: Главная героиня фильма - Одетта - обычная женщина, работающая продавцом в магазине, и вырастившая двоих детей. У Одетт есть одна страсть - книги Бальтазара Бальзана. Когда она их читает, то словно поднимается к небесам, забывая обо всём на свете. И вот она решает написать ему письмо, в котором рассказывает, какое значение в её жизни имеют его книги.
В момент сильной депрессии, вызванной изменой жены и отрицательными отзывами о его новой книге, Бальтазар находит её письмо, которое он, засунул себе в карман, несколькими днями ранее, не обратив на него особого внимания. Он находит её, и просит приютить его на время, ведь он не может больше найти своего места в жизни....



Качество видео: DVDRip
Формат видео: AVI
Видео: XviD, 576x240 (2.40:1), 25 fps, 871 kbps
Аудио: MPEG Audio, Layer 3, 192 Kbps, 48.0 KHz


General
Complete name : G:torrentsНовая папкаOdette Toutlemonde.avi
Format : AVI
Format/Info : Audio Video Interleave
File size : 740 MiB
Duration : 1h 36mn
Overall bit rate : 1 073 Kbps
Video #0
ID : 0
Format : MPEG-4 Visual
Format profile : Advanced Simple@L5
Format settings, BVOP : 2
Format settings, QPel : No
Format settings, GMC : No warppoints
Format settings, Matrix : Default (MPEG)
Codec ID : XVID
Codec ID/Hint : XviD
Duration : 1h 36mn
Bit rate : 871 Kbps
Width : 576 pixels
Height : 240 pixels
Display aspect ratio : 2.40:1
Frame rate : 25.000 fps
Color space : YUV
Chroma subsampling : 4:2:0
Bit depth : 8 bits
Scan type : Progressive
Compression mode : Lossy
Bits/(Pixel*Frame) : 0.252
Stream size : 601 MiB (81%)
Writing library : XviD 1.1.0 (UTC 2005-11-22)
Audio #1
ID : 1
Format : MPEG Audio
Format version : VerMPEG Audiosion 1
Format profile : Layer 3
Mode : Joint stereo
Codec ID : 55
Codec ID/Hint : MP3
Duration : 1h 36mn
Bit rate mode : Constant
Bit rate : 192 Kbps
Channel(s) : 2 channels
Sampling rate : 48.0 KHz
Compression mode : Lossy
Stream size : 132 MiB (18%)
Alignment : Aligned on interleaves
Interleave, duration : 40 ms (1.00 video frame)
Interleave, preload duration : 504 ms



Скачать Одетта.Тулемонд.Odette.Toulemonde.(Эрик-Эмманюэль.Шмитт).[2006.комедия.драма.DVDRip].[DVO].torrent без регистрации
Золото ЗОЛОТАЯ РАЗДАЧА! СКАЧАННОЕ НЕ ЗАСЧИТЫВАЕТСЯ! Золото
Дата: Зарегистрирован   [ Тип: внутренний ] Как тут cкачать?
MAGNET ссылка
MAGNET ссылка


Скачать .torrent

15 KB

Статус: проверено DHT
Скачан: торрент - 120 раз, раздача полностью - 33 раз
Размер: 740 MB
Оценка:  5 (Голосов: 1)
Поблагодарили: 1
Поделиться ссылкой на эту раздачу с друзьями:
В контактеFacebookОдноклассникиTwitterLivejournalМой МирLiveinternet
 

 
Показать сообщения:    


Вы не можете начинать темы
Вы не можете отвечать на сообщения
Вы не можете редактировать свои сообщения
Вы не можете удалять свои сообщения
Вы не можете голосовать в опросах
Вы не можете прикреплять файлы к сообщениям
Вы можете скачивать файлы