Loading...
Error

Скачать Путешествия Гулливера / Gulliver's Travels (Чарлз Стерридж / Charles Sturridge) [1996, фэнтези, приключения, семейный, DVDRip] торрент без регистрации

 
Статистика раздачи
Размер:  3,72 GB   |    Скачан:  183 раза
Сидов:  1  [  0 KB/s  ]  
 
Автор Сообщение

МихаНЕзатор

[] 

Путешествия Гулливера / Gulliver's Travels (1996) DVDRip

Информация о фильме
Название:
Оригинальное название:
Жанр: фэнтези, приключения, семейный
Год выпуска: 1996
Режиссер: Чарлз Стерридж / Charles Sturridge
В ролях: Тед Дэнсон, Мэри Стинберген, Джеймс Фокс, Нед Битти, Эдвард Фокс, Роберт Харди, Николас Линдхерст, Фиби Николлс, Керин Парсонс, Эдвард Петербридж...

Описание:

Тед Дэнсон в роли Гулливера, возвратившегося к жене (Стинберген) и девятилетнему сыну, родившемуся во время его отсутствия. Он рассказывает о своих приключениях в стране лиллипутов и великанов, но врач, считавший Гулливера погибшим и собиравшийся жениться на его супруге, объявляет его сумасшедшим и засаживает в лечебницу. Идет постоянное чередование действия: зритель то погружается в фантастический мир рассказов Гулливера, то следит за развитием событий в реальном, не менее жестоком мире современников Свифта. Авторы телефильма достаточно близко придерживаются основных эпизодов и текста великой сатирической книги, и предназначен он явно не для детей.
Он был великаном в Стране Лилипутов и лилипутом в Стране Великанов. Он в одиночку сражался с вражеским флотом и гигантскими осами. Он побывал на Летающем острове ученых и в Стране Говорящих Лошадей. Он разговаривал с духами мертвых и едва не обрел бессмертие… И единственным человеком, поверившим во все это, был его сын.



Страна: США, Великобритания
Продолжительность: 01:29:22 + 01:29:58
Перевод: Профессиональный (двухголосый закадровый) + Авторский (одноголосый закадровый) ПЁТР КАРЦЕВ - Отдельно + Оригинал - Отдельно
Cубтитры: Русские Отдельно

Файл
Качество: DVDRip
Формат: AVI
Видео:
1серия: 704x512 (1.38:1), 25 fps, XviD build 50 ~1878 kbps avg, 0.21 bit/pixel
2серия: 704x512 (1.38:1), 25 fps, XviD build 50 ~1863 kbps avg, 0.21 bit/pixel
Аудио 1: 48 kHz, AC3 Dolby Digital, 3/2 (L,C,R,l,r) + LFE ch, ~448.00 kbps avg - Русский (DVO)
Аудио 2: 48 kHz, AC3 Dolby Digital, 3/2 (L,C,R,l,r) + LFE ch, ~448.00 kbps avg - Английский (оригинал) - отдельным файлом
Аудио 3: 48 kHz, AC3 Dolby Digital, 2/0 (L,R) ch, ~192 kbps - П.Карцев - отдельным файлом
Формат субтитров: softsub (SRT)

Семпл

Общее
Полное имя : D:ФИЛЬМЫGulliver's Travels_by_RAmiRAGulliver's Travels 1серияGulliver's Travels 1серия.avi
Формат : AVI
Формат/Информация : Audio Video Interleave
Размер файла : 1,46 Гбайт
Продолжительность : 1 ч. 29 м.
Общий поток : 2337 Кбит/сек
Программа кодирования : VirtualDubModRus 1.5.10.2 (build 2540/release)
Библиотека кодирования : VirtualDubMod build 2540/release

Видео
Идентификатор : 0
Формат : MPEG-4 Visual
Профиль формата : Advanced Simple@L5
Параметр BVOP формата : Да
Параметр QPel формата : Нет
Параметр GMC формата : Без точки перехода
Параметр матрицы формата : Default (MPEG)
Идентификатор кодека : XVID
Идентификатор кодека/Подсказка : XviD
Продолжительность : 1 ч. 29 м.
Битрейт : 1879 Кбит/сек
Ширина : 704 пикс.
Высота : 512 пикс.
Соотношение сторон : 1,375
Частота кадров : 25,000 кадр/сек
Цветовое пространство : YUV
Подвыборка цветности : 4:2:0
Битовая глубина : 8 бит
Тип развёртки : Прогрессивная
Метод сжатия : С потерями
Бит/(Пиксели*Кадры) : 0.208
Размер потока : 1,17 Гбайт (80%)
Библиотека кодирования : XviD 1.2.1 (UTC 2008-12-04)

Аудио
Идентификатор : 1
Формат : AC-3
Формат/Информация : Audio Coding 3
Расширение режима : CM (complete main)
Идентификатор кодека : 2000
Продолжительность : 1 ч. 29 м.
Вид битрейта : Постоянный
Битрейт : 448 Кбит/сек
Канал(ы) : 6 канала(ов)
Расположение каналов : Front: L C R, Side: L R, LFE
Частота : 48,0 КГц
Битовая глубина : 16 бит
Метод сжатия : С потерями
Размер потока : 286 Мбайт (19%)
Выравнивание : Разделение по промежуткам
Продолжительность промежутка : 40 мс. (1,00 видеокадр)
Время предзагрузки промежутка : 500 ms

Общее
Полное имя : D:ФИЛЬМЫGulliver's Travels_by_RAmiRAGulliver's Travels 1серияGulliver's Travels 1серия.Eng.ac3
Формат : AC-3
Формат/Информация : Audio Coding 3
Размер файла : 286 Мбайт
Продолжительность : 1 ч. 29 м.
Общий поток : 448 Кбит/сек

Аудио
Формат : AC-3
Формат/Информация : Audio Coding 3
Расширение режима : CM (complete main)
Продолжительность : 1 ч. 29 м.
Вид битрейта : Постоянный
Битрейт : 448 Кбит/сек
Канал(ы) : 6 канала(ов)
Расположение каналов : Front: L C R, Side: L R, LFE
Частота : 48,0 КГц
Битовая глубина : 16 бит
Метод сжатия : С потерями
Размер потока : 286 Мбайт (100%)

Общее
Полное имя : D:ФИЛЬМЫGulliver's Travels_by_RAmiRAGulliver's Travels 1серияGulliver's Travels 1серия.Rus.srt
Размер файла : 133 Кбайт

Общее
Полное имя : D:ФИЛЬМЫGulliver's Travels__by_RAmiRAGulliver's Travels 1серияGulliver's Travels 1серия.Карцев.ac3
Формат : AC-3
Формат/Информация : Audio Coding 3
Размер файла : 123 Мбайт
Продолжительность : 1 ч. 29 м.
Общий поток : 192 Кбит/сек

Аудио
Формат : AC-3
Формат/Информация : Audio Coding 3
Расширение режима : CM (complete main)
Продолжительность : 1 ч. 29 м.
Вид битрейта : Постоянный
Битрейт : 192 Кбит/сек
Канал(ы) : 2 канала(ов)
Расположение каналов : Front: L R
Частота : 48,0 КГц
Битовая глубина : 16 бит
Метод сжатия : С потерями
Размер потока : 123 Мбайт (100%)

Общее
Полное имя : D:ФИЛЬМЫGulliver's Travels_by_RAmiRAGulliver's Travels 2серияGulliver's Travels 2серия.avi
Формат : AVI
Формат/Информация : Audio Video Interleave
Размер файла : 1,46 Гбайт
Продолжительность : 1 ч. 29 м.
Общий поток : 2322 Кбит/сек
Программа кодирования : VirtualDubModRus 1.5.10.2 (build 2540/release)
Библиотека кодирования : VirtualDubMod build 2540/release

Видео
Идентификатор : 0
Формат : MPEG-4 Visual
Профиль формата : Advanced Simple@L5
Параметр BVOP формата : Да
Параметр QPel формата : Нет
Параметр GMC формата : Без точки перехода
Параметр матрицы формата : Default (MPEG)
Идентификатор кодека : XVID
Идентификатор кодека/Подсказка : XviD
Продолжительность : 1 ч. 29 м.
Битрейт : 1864 Кбит/сек
Ширина : 704 пикс.
Высота : 512 пикс.
Соотношение сторон : 1,375
Частота кадров : 25,000 кадр/сек
Цветовое пространство : YUV
Подвыборка цветности : 4:2:0
Битовая глубина : 8 бит
Тип развёртки : Прогрессивная
Метод сжатия : С потерями
Бит/(Пиксели*Кадры) : 0.207
Размер потока : 1,17 Гбайт (80%)
Библиотека кодирования : XviD 1.2.1 (UTC 2008-12-04)

Аудио
Идентификатор : 1
Формат : AC-3
Формат/Информация : Audio Coding 3
Расширение режима : CM (complete main)
Идентификатор кодека : 2000
Продолжительность : 1 ч. 29 м.
Вид битрейта : Постоянный
Битрейт : 448 Кбит/сек
Канал(ы) : 6 канала(ов)
Расположение каналов : Front: L C R, Side: L R, LFE
Частота : 48,0 КГц
Битовая глубина : 16 бит
Метод сжатия : С потерями
Размер потока : 288 Мбайт (19%)
Выравнивание : Разделение по промежуткам
Продолжительность промежутка : 40 мс. (1,00 видеокадр)
Время предзагрузки промежутка : 500 ms

Общее
Полное имя : D:ФИЛЬМЫGulliver's Travels__by_RAmiRAGulliver's Travels 2серияGulliver's Travels 2серия.Eng.ac3
Формат : AC-3
Формат/Информация : Audio Coding 3
Размер файла : 288 Мбайт
Продолжительность : 1 ч. 29 м.
Общий поток : 448 Кбит/сек

Аудио
Формат : AC-3
Формат/Информация : Audio Coding 3
Расширение режима : CM (complete main)
Продолжительность : 1 ч. 29 м.
Вид битрейта : Постоянный
Битрейт : 448 Кбит/сек
Канал(ы) : 6 канала(ов)
Расположение каналов : Front: L C R, Side: L R, LFE
Частота : 48,0 КГц
Битовая глубина : 16 бит
Метод сжатия : С потерями
Размер потока : 288 Мбайт (100%)

Общее
Полное имя : D:ФИЛЬМЫGulliver's Travels__by_RAmiRAGulliver's Travels 2серияGulliver's Travels 2серия.Rus.srt
Размер файла : 136 Кбайт

Общее
Полное имя : D:ФИЛЬМЫGulliver's Travels__by_RAmiRAGulliver's Travels 2серияGulliver's Travels 2серия.Карцев.ac3
Формат : AC-3
Формат/Информация : Audio Coding 3
Размер файла : 124 Мбайт
Продолжительность : 1 ч. 29 м.
Общий поток : 192 Кбит/сек

Аудио
Формат : AC-3
Формат/Информация : Audio Coding 3
Расширение режима : CM (complete main)
Продолжительность : 1 ч. 29 м.
Вид битрейта : Постоянный
Битрейт : 192 Кбит/сек
Канал(ы) : 2 канала(ов)
Расположение каналов : Front: L R
Частота : 48,0 КГц
Битовая глубина : 16 бит
Метод сжатия : С потерями
Размер потока : 124 Мбайт (100%)


ПОЖАЛУЙСТА НЕ УХОДИТЕ С РАЗДАЧИ!



Скачать Путешествия.Гулливера.Gulliver's.Travels.(Чарлз.Стерридж.Charles.Sturridge).[1996.фэнтези.приключения.семейный.DVDRip].torrent без регистрации
Золото ЗОЛОТАЯ РАЗДАЧА! СКАЧАННОЕ НЕ ЗАСЧИТЫВАЕТСЯ! Золото
Дата: Зарегистрирован   [ Тип: внутренний ] Как тут cкачать?
MAGNET ссылка
MAGNET ссылка


Скачать .torrent

20 KB

Статус: проверено DHT
Скачан: торрент - 183 раз, раздача полностью - 74 раз
Размер: 3,72 GB
Оценка:  5 (Голосов: 2)
Поблагодарили: 4
Поделиться ссылкой на эту раздачу с друзьями:
В контактеFacebookОдноклассникиTwitterLivejournalМой МирLiveinternet
 

 
Показать сообщения:    


Вы не можете начинать темы
Вы не можете отвечать на сообщения
Вы не можете редактировать свои сообщения
Вы не можете удалять свои сообщения
Вы не можете голосовать в опросах
Вы не можете прикреплять файлы к сообщениям
Вы можете скачивать файлы