Loading...
Error

Скачать Анатомия страсти / Grey's Anatomy (Полный 8-ой сезон) (Шонда Раймс) [2011 г., Драма/Комедия, WEB-DLRip] [400p] [DVO] (Кубик в кубе) торрент без регистрации

 
Статистика раздачи
Размер:  20,24 GB   |    Скачан:  343 раза
Сидов:  1  [  0 KB/s  ]  
 
Автор Сообщение

leon030982

[] 

Анатомия страсти / Grey's Anatomy
Годы выпуска: 2011
Страна: США

Жанр: медицинская драма, комедия
Продолжительность: ~ 43 минуты
Перевод: Профессиональный двухголосый закадровый(Кубик в кубе)
Субтитры: рус, англ
Автор идеи: Шонда Раймс
В ролях:
Эллен Помпео (Мередит Грей), Кэтрин Хайгл (Иззи Стивенс), Сандра О (Кристина Янг), Джастин Чэмберс (Алекс Карев), Кайлер Ли (Лекси Грей), Патрик Дэмпси (Дерек Шепард), Сара Рамирез (Кэлли Торрес), Эрик Дэйнс (Марк Слоан), Джеймс Пикенс мл. (Шеф Веббер), Чэндра Уилсон (Миранда Бэйли), Кевин МакКидд (Оуэн Хант), Джессика Кэпшоу (Аризона Роббинс)
Описание:
Продолжение знаменитой медицинской драмы о работе и личных отношениях хирургов сиэтлской больницы. Каждый день наполнен болью и счастьем, ссорами и примирениями, сложными дилеммами и необходимостью принять моментальное решение от которого зависит жизнь человека. В центре сюжета хирург - Мередит...

Качество: WEB-DLRip
Формат: AVI

Видео: 720x400 (1.80:1), 23.976 fps, XviD MPEG-4 ~1996 kbps avg, 0.29 bit/pixel
Аудио Rus: 48 kHz, AC3 Dolby Digital, 3/2 (L,C,R,l,r) + LFE ch, ~448 kbps
Аудио Eng: 48 kHz, AC3 Dolby Digital, 3/2 (L,C,R,l,r) + LFE ch, ~384 kbps

Релиз:
Перевод:
Olyabusha, РГ "ЧП"
Озвучка: Кубик в кубе
Работа со звуком: TranceWeLoveYou
Рип: ЛП


General
Complete name : H:\Фтп 3\Work\Kybik v Kybe\Greys Anatomy Season 8\Greys.Anatomy.s08e01.rus.eng.avi
Format : AVI
Format/Info : Audio Video Interleave
File size : 878 MiB
Duration : 43mn 12s
Overall bit rate : 2 842 Kbps
Writing application : VirtualDubMod 1.5.10.2 (build 2540/release)
Writing library : VirtualDubMod build 2540/release
Video

ID : 0
Format : MPEG-4 Visual
Format profile : Advanced Simple@L5
Format settings, BVOP : Yes
Format settings, QPel : No
Format settings, GMC : No warppoints
Format settings, Matrix : Default (MPEG)
Codec ID : XVID
Codec ID/Hint : XviD
Duration : 43mn 12s
Bit rate : 1 996 Kbps
Width : 720 pixels
Height : 400 pixels
Display aspect ratio : 16:9
Frame rate : 23.976 fps
Color space : YUV
Chroma subsampling : 4:2:0
Bit depth : 8 bits
Scan type : Progressive
Bits/(Pixel*Frame) : 0.289
Stream size : 617 MiB (70%)
Writing library : XviD 58
Audio #1
ID : 1
Format : AC-3
Format/Info : Audio Coding 3
Mode extension : CM (complete main)
Codec ID : 2000
Duration : 43mn 12s
Bit rate mode : Constant
Bit rate : 448 Kbps
Channel(s) : 6 channels
Channel positions : Front: L C R, Side: L R, LFE
Sampling rate : 48.0 KHz
Bit depth : 16 bits
Stream size : 138 MiB (16%)
Alignment : Split accross interleaves
Interleave, duration : 42 ms (1.00 video frame)
Interleave, preload duration : 500 ms
Audio #2
ID : 2
Format : AC-3
Format/Info : Audio Coding 3
Mode extension : CM (complete main)
Codec ID : 2000
Duration : 43mn 12s
Bit rate mode : Constant
Bit rate : 384 Kbps
Channel(s) : 6 channels
Channel positions : Front: L C R, Side: L R, LFE
Sampling rate : 48.0 KHz
Bit depth : 16 bits
Stream size : 119 MiB (14%)
Alignment : Split accross interleaves
Interleave, duration : 42 ms (1.00 video frame)
Interleave, preload duration : 500 ms
Free Falling
She's Gone
Take the Lead
What Is It About Men
Love, Loss and Legacy
Poker Face
Put Me in, Coach
Heart-Shaped Box
Dark Was the Night
Suddenly
This Magic Moment
Hope for the Hopeless
If/Then



Скачать Анатомия.страсти.Grey's.Anatomy.(Полный.8-ой.сезон).(Шонда.Раймс).[2011.г.Драма.Комедия.WEB-DLRip].[400p].[DVO].(Кубик.в.кубе).torrent без регистрации
Золото ЗОЛОТАЯ РАЗДАЧА! СКАЧАННОЕ НЕ ЗАСЧИТЫВАЕТСЯ! Золото
Дата: Зарегистрирован   [ Тип: внутренний ] Как тут cкачать?
MAGNET ссылка
MAGNET ссылка


Скачать .torrent

56 KB

Статус: проверено DHT
Скачан: торрент - 343 раз, раздача полностью - 186 раз
Размер: 20,24 GB
Оценка:  - (Голосов: 0)
Поблагодарили: 1
Поделиться ссылкой на эту раздачу с друзьями:
В контактеFacebookОдноклассникиTwitterLivejournalМой МирLiveinternet
 

 
Показать сообщения:    


Вы не можете начинать темы
Вы не можете отвечать на сообщения
Вы не можете редактировать свои сообщения
Вы не можете удалять свои сообщения
Вы не можете голосовать в опросах
Вы не можете прикреплять файлы к сообщениям
Вы можете скачивать файлы