Loading...
Error

Скачать Мальтийский сокол / The Maltese Falcon (Джон Хьюстон / John Huston) [1941, фильм-нуар, триллер, драма, криминал, детектив, BDRip] [Dub] (Варус-Видео) + 3x[MVO] (Film Prestige, SomeWax, НТВ+) торрент без регистрации

 
Статистика раздачи
Размер:  2,07 GB   |    Скачан:  137 раз
Сидов:  1  [  0 KB/s  ]  
 
Автор Сообщение

leon030982

[] 

Мальтийский сокол / The Maltese Falcon

Страна: США
Жанр: фильм-нуар, триллер, драма, криминал, детектив
Год выпуска: 1941
Продолжительность: 01:40:32
Перевод: Профессиональный (дублированный) Варус-Видео
+ 3 MVO (Film Prestige, SomeWax, НТВ+)
Оригинальная аудиодорожка: Английский
Cубтитры: русские, английские (*.srt)
Режиссер: Джон Хьюстон / John Huston
В ролях:
*Хамфри Богарт - Сэм Спейд
*Мэри Астор - Бриджит О’Шоннесси
*Глэдис Джордж - Айва Арчер
*Питер Лорре - Джоэл Кайро
*Сидни Гринстрит — Каспер Гатмен (Толстяк)
*Бартон Маклейн — лейтенант Данди
*Уорд Бонд — сержант Том Полхаус
*Ли Патрик — Эффи Перрин, секретарша
*Джером Кауэн — Майлз Арчер
*Элайша Кук-младший — Уилмер Кук
*Уолтер Хьюстон — капитан Якоби
Описание: Частный детектив Сэм Спэйд начинает смертельную охоту за таинственно исчезнувшей бесценной статуэткой «мальтийского сокола».
Эта реликвия пришла в современный мир из глубины веков и символизирует собою возможность управления людьми, народами, странами. Человечеством, в конце концов. Более-менее подкованному человеку известно, что миром правят секретные ордены и организации, а поэтому интерес к этой теме вечен и непререкаем.

Рейтинг:
imdb.com - 8.3/10 (68,155)
kinopoisk.ru - 7.984 (2 216)
За дорожку с дубляжом благодарность: $in0bi, yangus, StudioRAK
Релиз от группы:
Качество видео: // спасибо TDiTP_ //
Формат видео: AVI // Sample //
Видео: 704x512 (1.38:1), 23.976 fps, XviD build 65 ~2174 kbps avg, 0.252 bit/pixel
Аудио: #1 48 kHz, AC3 Dolby Digital, 2/0 (L,R) ch, ~192 kbps - Дубляж
Аудио: #2 48 kHz, AC3 Dolby Digital, 1/0 (L,R) ch, ~192 kbps - Film Prestige
Аудио: #3 48 kHz, AC3 Dolby Digital, 1/0 (L,R) ch, ~128 kbps - SomeWax
Аудио: #4 48 kHz, AC3 Dolby Digital, 1/0 (L,R) ch, ~128 kbps - NTV+
Аудио: #5 48 kHz, AC3 Dolby Digital, 1/0 (L,R) ch, ~96 kbps - Original
Общее
Полное имя : L:\Mal'tijskij sokol.1941.BDRip.[All.Films]\Mal'tijskij sokol.1941.BDRip.[All.Films].avi
Формат : AVI
Формат/Информация : Audio Video Interleave
Профиль формата : OpenDML
Размер файла : 2,07 Гбайт
Продолжительность : 1 ч. 40 м.
Общий поток : 2947 Кбит/сек
Название фильма : Mal'tijskij sokol.1941.BDRip.[All.Films]
Режиссёр : VremeniNet
Программа кодирования : VirtualDubModRus 1.5.10.2 (build 2542/release)
Правообладатель : [rutracker.org]
Видео
Идентификатор : 0
Формат : MPEG-4 Visual
Профиль формата : Advanced Simple@L5
Параметр BVOP формата : 1
Параметр QPel формата : Нет
Параметр GMC формата : Без точки перехода
Параметр матрицы формата : Выборочная
Идентификатор кодека : XVID
Идентификатор кодека/Подсказка : XviD
Продолжительность : 1 ч. 40 м.
Битрейт : 2174 Кбит/сек
Ширина : 704 пикселя
Высота : 512 пикселей
Соотношение сторон : 1,375
Частота кадров : 23,976 кадра/сек
Цветовое пространство : YUV
Субдискретизация насыщенности : 4:2:0
Битовая глубина : 8 бит
Тип развёртки : Прогрессивная
Метод сжатия : С потерями
Бит/(Пиксели*Кадры) : 0.252
Размер потока : 1,53 Гбайт (74%)
Библиотека кодирования : XviD 65
Аудио #1
Идентификатор : 1
Формат : AC-3
Формат/Информация : Audio Coding 3
Расширение режима : CM (complete main)
Параметр Endianness формата : Big
Идентификатор кодека : 2000
Продолжительность : 1 ч. 40 м.
Вид битрейта : Постоянный
Битрейт : 192 Кбит/сек
Каналы : 2 канала
Расположение каналов : Front: L R
Частота : 48,0 КГц
Битовая глубина : 16 бит
Метод сжатия : С потерями
Размер потока : 138 Мбайт (7%)
Выравнивание : Разделение по промежуткам
Продолжительность промежутка : 42 мс. (1,00 видеокадр)
Время предзагрузки промежутка : 500 мс.
Заголовок : 'Dub'
Аудио #2
Идентификатор : 2
Формат : AC-3
Формат/Информация : Audio Coding 3
Расширение режима : CM (complete main)
Параметр Endianness формата : Big
Идентификатор кодека : 2000
Продолжительность : 1 ч. 40 м.
Вид битрейта : Постоянный
Битрейт : 192 Кбит/сек
Каналы : 1 канал
Расположение каналов : Front: C
Частота : 48,0 КГц
Битовая глубина : 16 бит
Метод сжатия : С потерями
Задержка видео : 23 мс.
Размер потока : 138 Мбайт (7%)
Выравнивание : Разделение по промежуткам
Продолжительность промежутка : 42 мс. (1,00 видеокадр)
Время предзагрузки промежутка : 500 мс.
Заголовок : 'Film Prestige'
Аудио #3
Идентификатор : 3
Формат : AC-3
Формат/Информация : Audio Coding 3
Расширение режима : CM (complete main)
Параметр Endianness формата : Big
Идентификатор кодека : 2000
Продолжительность : 1 ч. 40 м.
Вид битрейта : Постоянный
Битрейт : 128 Кбит/сек
Каналы : 1 канал
Расположение каналов : Front: C
Частота : 48,0 КГц
Битовая глубина : 16 бит
Метод сжатия : С потерями
Задержка видео : 23 мс.
Размер потока : 92,0 Мбайт (4%)
Выравнивание : Разделение по промежуткам
Продолжительность промежутка : 42 мс. (1,00 видеокадр)
Время предзагрузки промежутка : 500 мс.
Заголовок : 'SomeWax'
Аудио #4
Идентификатор : 4
Формат : AC-3
Формат/Информация : Audio Coding 3
Расширение режима : CM (complete main)
Параметр Endianness формата : Big
Идентификатор кодека : 2000
Продолжительность : 1 ч. 40 м.
Вид битрейта : Постоянный
Битрейт : 128 Кбит/сек
Каналы : 1 канал
Расположение каналов : Front: C
Частота : 48,0 КГц
Битовая глубина : 16 бит
Метод сжатия : С потерями
Задержка видео : 23 мс.
Размер потока : 92,0 Мбайт (4%)
Выравнивание : Разделение по промежуткам
Продолжительность промежутка : 42 мс. (1,00 видеокадр)
Время предзагрузки промежутка : 500 мс.
Заголовок : 'NTV+'
Аудио #5
Идентификатор : 5
Формат : AC-3
Формат/Информация : Audio Coding 3
Расширение режима : CM (complete main)
Параметр Endianness формата : Big
Идентификатор кодека : 2000
Продолжительность : 1 ч. 40 м.
Вид битрейта : Постоянный
Битрейт : 96,0 Кбит/сек
Каналы : 1 канал
Расположение каналов : Front: C
Частота : 48,0 КГц
Битовая глубина : 16 бит
Метод сжатия : С потерями
Размер потока : 69,0 Мбайт (3%)
Выравнивание : Разделение по промежуткам
Продолжительность промежутка : 42 мс. (1,00 видеокадр)
Время предзагрузки промежутка : 500 мс.
Заголовок : 'Original'
Общее
Полное имя : L:\Mal'tijskij sokol.1941.BDRip.[All.Films]\Mal'tijskij sokol.1941.BDRip.[All.Films].eng.srt
Размер файла : 249 Кбайт
Общее
Полное имя : L:\Mal'tijskij sokol.1941.BDRip.[All.Films]\Mal'tijskij sokol.1941.BDRip.[All.Films].rus.srt
Формат : SubRip
Размер файла : 100 Кбайт
Текст
Формат : SubRip
Метод сжатия : Без потерь



Скачать Мальтийский.сокол.The.Maltese.Falcon.(Джон.Хьюстон.John.Huston).[1941.фильм-нуар.триллер.драма.криминал.детектив.BDRip].[Dub].(Варус-Видео).+.3x[MVO].(Film.Prestige.SomeWax.НТВ+).torrent без регистрации
Золото ЗОЛОТАЯ РАЗДАЧА! СКАЧАННОЕ НЕ ЗАСЧИТЫВАЕТСЯ! Золото
Дата: Зарегистрирован   [ Тип: внутренний ] Как тут cкачать?
MAGNET ссылка
MAGNET ссылка


Скачать .torrent

11 KB

Статус: проверено DHT
Скачан: торрент - 137 раз, раздача полностью - 54 раз
Размер: 2,07 GB
Оценка:  5 (Голосов: 1)
Поблагодарили: 3
Поделиться ссылкой на эту раздачу с друзьями:
В контактеFacebookОдноклассникиTwitterLivejournalМой МирLiveinternet
 

 
Показать сообщения:    


Вы не можете начинать темы
Вы не можете отвечать на сообщения
Вы не можете редактировать свои сообщения
Вы не можете удалять свои сообщения
Вы не можете голосовать в опросах
Вы не можете прикреплять файлы к сообщениям
Вы можете скачивать файлы