Loading...
Error

Скачать Без единой улики / Without a Clue (Том Эберхардт / Thom Eberhardt) [1988, комедия, детектив, приключения, DVDRip-AVC] [Dub] + [MVO] + [DVO] торрент без регистрации

 
Статистика раздачи
Размер:  2,15 GB   |    Скачан:  122 раза
Сидов:  1  [  0 KB/s  ]  
 
Автор Сообщение

leon030982

[] 

Без единой улики / Without a Clue


Год выпуска: 1988
Страна: Великобритания
Жанр: комедия, детектив, приключения
Продолжительность: 01:47:02
Перевод#1: Профессиональный (дублированный) | СССР
Перевод#1: Профессиональный (многоголосый закадровый) | Позитив
Перевод#1: Профессиональный (двухголосый закадровый) | ТВ-6
Cубтитры: английские
Оригинальная аудиодорожка: английский

Режиссер: Том Эберхардт

В ролях: Майкл Кейн, Бен Кингсли, Джеффри Джонс, Лизетт Энтони, Пол Фримен, Найджел Дэвенпорт, Пэт Кин, Питер Кук, Тим Киллик, Мэттью Сэвадж

Описание: Однажды, приблизительно за девять лет до описываемых в фильме событий, доктор Ватсон лечил инспектора Скотланд Ярда. Говорил он с пациентом не только о его болезни, но и о его работе, и, выслушав факты одного очень запутанного дела об убийстве и сопоставив их, помог найти убийцу. В то время Ватсон ждал назначения в штат одного очень консервативного медицинского колледжа, руководство которого не одобрило бы его дедуктивное хобби, поэтому он приписал раскрытие преступления вымышленному лицу, несуществующему детективу — Шерлоку Холмсу.
Должности Ватсон так и не получил, а Скотланд Ярд не забывал про него и его таинственного друга-детектива, постоянно обращаясь к их (точнее, к его — Ватсона) помощи в раскрытии преступлений. На досуге же Ватсон стал писать детективные рассказы о якобы их с Холмсом приключениях, которые охотно публиковал журнал «Стрэнд». И вот настал момент, когда восторженная публика потребовала предъявить ей живого Шерлока Холмса. Ватсону не оставалось ничего другого, как нанять актера Реджинальда Кинкейда для исполнения роли великого сыщика, раскрывающего все преступления, которые на самом деле раскрывал сам Ватсон. Сам же доктор теперь был при живом гении кем-то вроде помощника. Тиражи «Стрэнд» росли, популярность и слава Шерлока Холмса множилась день ото дня, но вся беда была в том, что Реджинальд Кинкейд был не только бездарным актером, но, в противоположность своему амплуа — Холмсу, жутким бабником, алкоголиком и напыщенным остолопом, не способным даже на самое элементарное умозаключение...


Цытата: Фильм действительно вышел качественным, интересным, детективным и главное — смешным. А закончилась история действительно, как надо.



Качество видео: DVDRip-AVC | sample
Формат видео: MKV
Видео кодек: x264
Видео: AVC 720x480@720x540 (4:3), 23.976 fps, ~2100 Kbps, 0.25 bit/pixel
Аудио #1: Russian AC3 2ch 48kHz 192Kbps | Dub СССР
Аудио #2: Russian AC3 2ch 48kHz 192Kbps | MVO Позитив
Аудио #3: Russian AC3 2ch 48kHz 192Kbps | DVO ТВ-6
Аудио #4: English AC3 2ch 48kHz 192Kbps | Original
Формат субтитров: softsub (SRT)
Главы: есть
--[NoImage] raw [info]: 720x480p 1:1 @ 24000/1001 fps (cfr)
--[NoImage] x264 [info]: using SAR=1/1
--[NoImage] x264 [info]: using cpu capabilities: MMX2 SSE2Fast FastShuffle SSEMisalign LZCNT
--[NoImage] x264 [info]: profile High, level 4.1
--[NoImage] x264 [info]: cabac=1 ref=14 deblock=1:-3:-3 analyse=0x3:0x133 me=umh subme=11 psy=1 fade_compensate=0.00 psy_rd=1.15:0.00 mixed_ref=1 me_range=48 chroma_me=1 trellis=2 8x8dct=1 cqm=0 deadzone=21,11 fast_pskip=0 chroma_qp_offset=-2 threads=6 lookahead_threads=1 sliced_threads=0 nr=0 decimate=0 interlaced=0 bluray_compat=0 constrained_intra=0 bframes=12 b_pyramid=2 b_adapt=2 b_bias=0 direct=3 weightb=1 open_gop=0 weightp=2 keyint=240 keyint_min=23 scenecut=40 intra_refresh=0 rc_lookahead=40 rc=2pass mbtree=0 bitrate=2100 ratetol=1.0 qcomp=0.60 qpmin=0 qpmax=69 qpstep=4 cplxblur=20.0 qblur=0.5 vbv_maxrate=17500 vbv_bufsize=14000 nal_hrd=none ip_ratio=1.40 pb_ratio=1.30 aq=3:1.00
--[NoImage] x264 [info]: started at Tue Jun 26 16:05:40 2012
--[NoImage]
--[NoImage] x264 [info]: frame I:1270 Avg QP:15.22 size: 47528
--[NoImage] x264 [info]: frame P:28201 Avg QP:19.12 size: 19089
--[NoImage] x264 [info]: frame B:124503 Avg QP:19.66 size: 8725
--[NoImage] x264 [info]: consecutive B-frames: 1.1% 0.7% 5.2% 4.8% 6.2% 77.3% 2.6% 0.7% 0.4% 0.2% 0.2% 0.2% 0.2%
--[NoImage] x264 [info]: mb I I16..4: 1.1% 95.3% 3.5%
--[NoImage] x264 [info]: mb P I16..4: 0.2% 24.1% 0.3% P16..4: 27.6% 32.0% 10.8% 3.0% 0.2% skip: 1.9%
--[NoImage] x264 [info]: mb B I16..4: 0.0% 3.9% 0.0% B16..8: 34.4% 22.8% 4.5% direct:11.4% skip:23.0% L0:39.1% L1:32.2% BI:28.7%
--[NoImage] x264 [info]: 8x8 transform intra:97.8% inter:60.6%
--[NoImage] x264 [info]: direct mvs spatial:99.2% temporal:0.8%
--[NoImage] x264 [info]: coded y,uvDC,uvAC intra: 97.6% 73.9% 37.4% inter: 41.1% 29.9% 3.6%
--[NoImage] x264 [info]: i16 v,h,dc,p: 43% 9% 4% 43%
--[NoImage] x264 [info]: i8 v,h,dc,ddl,ddr,vr,hd,vl,hu: 12% 9% 24% 8% 9% 9% 8% 10% 12%
--[NoImage] x264 [info]: i4 v,h,dc,ddl,ddr,vr,hd,vl,hu: 11% 6% 5% 9% 16% 16% 14% 11% 11%
--[NoImage] x264 [info]: i8c dc,h,v,p: 34% 33% 23% 11%
--[NoImage] x264 [info]: Weighted P-Frames: Y:7.4% UV:2.1%
--[NoImage] x264 [info]: ref P L0: 41.9% 11.6% 16.0% 7.6% 5.6% 4.4% 3.6% 2.1% 1.8% 1.5% 1.3% 1.1% 0.9% 0.7% 0.1% 0.0%
--[NoImage] x264 [info]: ref B L0: 70.6% 13.8% 5.4% 2.8% 2.0% 1.6% 1.3% 0.7% 0.6% 0.5% 0.4% 0.2% 0.1%
--[NoImage] x264 [info]: ref B L1: 93.2% 6.8%
--[NoImage] x264 [info]: kb/s:2098.98
--[NoImage] encoded 153974 frames, 6.96 fps, 2098.98 kb/s
General
Complete name : E:\...\Without.a.Clue.1988.NTSC.DVDRip.x264.AC3.Rus.Eng-E76.mkv
Format : Matroska
Format version : Version 2
File size : 2.15 GiB
Duration : 1h 47mn
Overall bit rate : 2 870 Kbps
Movie name : Without.a.Clue.1988.NTSC.DVDRip.x264.AC3.Rus.Eng-E76
Encoded date : UTC 2012-08-27 08:22:35
Writing application : mkvmerge v5.2.1 ('A Far Off Place') built on Jan 2 2012 23:21:10
Writing library : libebml v1.2.3 + libmatroska v1.3.0
Video
ID : 1
Format : AVC
Format/Info : Advanced Video Codec
Format profile : High@L4.1
Format settings, CABAC : Yes
Format settings, ReFrames : 14 frames
Codec ID : V_MPEG4/ISO/AVC
Duration : 1h 47mn
Bit rate : 2 100 Kbps
Width : 720 pixels
Height : 480 pixels
Display aspect ratio : 4:3
Original display aspect ratio : 3:2
Frame rate : 23.976 fps
Standard : NTSC
Color space : YUV
Chroma subsampling : 4:2:0
Bit depth : 8 bits
Scan type : Progressive
Bits/(Pixel*Frame) : 0.253
Stream size : 1.53 GiB (71%)
Title : Encode by Enclave76
Writing library : x264 core 125 r2200kMod 999b753
Encoding settings : cabac=1 / ref=14 / deblock=1:-3:-3 / analyse=0x3:0x133 / me=umh / subme=11 / psy=1 / fade_compensate=0.00 / psy_rd=1.15:0.00 / mixed_ref=1 / me_range=48 / chroma_me=1 / trellis=2 / 8x8dct=1 / cqm=0 / deadzone=21,11 / fast_pskip=0 / chroma_qp_offset=-2 / threads=6 / lookahead_threads=1 / sliced_threads=0 / nr=0 / decimate=0 / interlaced=0 / bluray_compat=0 / constrained_intra=0 / bframes=12 / b_pyramid=2 / b_adapt=2 / b_bias=0 / direct=3 / weightb=1 / open_gop=0 / weightp=2 / keyint=240 / keyint_min=23 / scenecut=40 / intra_refresh=0 / rc_lookahead=40 / rc=2pass / mbtree=0 / bitrate=2100 / ratetol=1.0 / qcomp=0.60 / qpmin=0 / qpmax=69 / qpstep=4 / cplxblur=20.0 / qblur=0.5 / vbv_maxrate=17500 / vbv_bufsize=14000 / nal_hrd=none / ip_ratio=1.40 / pb_ratio=1.30 / aq=3:1.00
Language : English
Matrix coefficients : BT.470-6 System B, BT.470-6 System G, BT.601-6 625, BT.1358 625, BT.1700 625 PAL, BT.1700 625 SECAM, IEC 61966-2-4 601
Audio #1
ID : 2
Format : AC-3
Format/Info : Audio Coding 3
Mode extension : CM (complete main)
Codec ID : A_AC3
Duration : 1h 47mn
Bit rate mode : Constant
Bit rate : 192 Kbps
Channel(s) : 2 channels
Channel positions : Front: L R
Sampling rate : 48.0 KHz
Bit depth : 16 bits
Compression mode : Lossy
Stream size : 147 MiB (7%)
Title : Dub USSR
Language : Russian
Audio #2
ID : 3
Format : AC-3
Format/Info : Audio Coding 3
Mode extension : CM (complete main)
Codec ID : A_AC3
Duration : 1h 47mn
Bit rate mode : Constant
Bit rate : 192 Kbps
Channel(s) : 2 channels
Channel positions : Front: L R
Sampling rate : 48.0 KHz
Bit depth : 16 bits
Compression mode : Lossy
Stream size : 147 MiB (7%)
Title : MVO Positive
Language : Russian
Audio #3
ID : 4
Format : AC-3
Format/Info : Audio Coding 3
Mode extension : CM (complete main)
Codec ID : A_AC3
Duration : 1h 47mn
Bit rate mode : Constant
Bit rate : 192 Kbps
Channel(s) : 2 channels
Channel positions : Front: L R
Sampling rate : 48.0 KHz
Bit depth : 16 bits
Compression mode : Lossy
Stream size : 147 MiB (7%)
Title : DVO TV-6
Language : Russian
Audio #4
ID : 5
Format : AC-3
Format/Info : Audio Coding 3
Format profile : Dolby Digital
Mode extension : CM (complete main)
Codec ID : A_AC3
Duration : 1h 47mn
Bit rate mode : Constant
Bit rate : 192 Kbps
Channel(s) : 2 channels
Channel positions : Front: L R
Sampling rate : 48.0 KHz
Bit depth : 16 bits
Compression mode : Lossy
Stream size : 147 MiB (7%)
Title : Original
Language : English
Text
ID : 6
Format : UTF-8
Codec ID : S_TEXT/UTF8
Codec ID/Info : UTF-8 Plain Text
Language : English
Menu
00:00:00.000 : en:Chapter 01
00:06:47.367 : en:Chapter 02
...
01:42:15.568 : en:Chapter 16



Скачать Без.единой.улики.Without.a.Clue.(Том.Эберхардт.Thom.Eberhardt).[1988.комедия.детектив.приключения.DVDRip-AVC].[Dub].+.[MVO].+.[DVO].torrent без регистрации
Золото ЗОЛОТАЯ РАЗДАЧА! СКАЧАННОЕ НЕ ЗАСЧИТЫВАЕТСЯ! Золото
Дата: Зарегистрирован   [ Тип: внутренний ] Как тут cкачать?
MAGNET ссылка
MAGNET ссылка


Скачать .torrent

11 KB

Статус: проверено DHT
Скачан: торрент - 122 раз, раздача полностью - 9 раз
Размер: 2,15 GB
Оценка:  - (Голосов: 0)
Поблагодарили: 1
Поделиться ссылкой на эту раздачу с друзьями:
В контактеFacebookОдноклассникиTwitterLivejournalМой МирLiveinternet
 

 
Показать сообщения:    


Вы не можете начинать темы
Вы не можете отвечать на сообщения
Вы не можете редактировать свои сообщения
Вы не можете удалять свои сообщения
Вы не можете голосовать в опросах
Вы не можете прикреплять файлы к сообщениям
Вы можете скачивать файлы